<?xml version="1.0" standalone="no"?>
<!DOCTYPE svg PUBLIC "-//W3C//DTD SVG 1.1//EN" "http://www.w3.org/Graphics/SVG/1.1/DTD/svg11.dtd" >
<svg>
<metadata>
Created by FontForge 20120731 at Wed Aug  4 10:19:55 2021
 By fw_worker
Copyright 1990-1999 as an unpublished work by Bitstream Inc.  All rights reserved.  Confidential.
</metadata>
<defs>
<font id="IowanOldStyleBT-Roman" horiz-adv-x="500" >
  <font-face 
    font-family="Bitstream Iowan Old Style"
    font-weight="500"
    font-stretch="normal"
    units-per-em="1000"
    panose-1="0 0 0 0 0 0 0 0 0 0"
    ascent="800"
    descent="-200"
    x-height="479"
    cap-height="697"
    bbox="-168 -261 1164 977"
    underline-thickness="53"
    underline-position="-100"
    stemh="48"
    stemv="78"
    unicode-range="U+0020-FB02"
  />
<missing-glyph horiz-adv-x="278" 
 />
    <glyph glyph-name=".notdef" horiz-adv-x="278" 
 />
    <glyph glyph-name="space" unicode=" " horiz-adv-x="278" 
 />
    <glyph glyph-name="exclam" unicode="!" horiz-adv-x="337" 
d="M111 697h101c-2 -161 -27 -328 -37 -506h-40c-3 157 -11 325 -24 506zM152 118l34 -27c17 -13 26 -25 26 -41c0 -17 -7 -26 -23 -38l-37 -28l-34 26c-18 14 -27 27 -27 42c0 17 9 26 25 38z" />
    <glyph glyph-name="quotedbl" unicode="&#x22;" horiz-adv-x="331" 
d="M93 422h-16l-31 223c-1 7 -2 14 -2 20c0 32 15 49 41 49s42 -17 42 -49c0 -5 -1 -12 -2 -20zM253 422h-15l-32 223c-1 7 -2 13 -2 19c0 33 16 50 42 50s41 -17 41 -49c0 -5 0 -12 -1 -20z" />
    <glyph glyph-name="numbersign" unicode="#" horiz-adv-x="556" 
d="M271 692h56c-27 -84 -51 -162 -73 -234c20 -1 37 -1 50 -1c6 0 29 0 69 1c26 79 49 156 71 234h56l-74 -234c13 0 26 -1 39 -1c22 0 43 1 63 3l-17 -57c-25 2 -59 4 -101 5l-40 -123c16 0 32 -1 46 -1c21 0 41 1 59 2l-17 -55c-27 2 -56 4 -84 4h-19l-70 -235h-56
c25 82 50 161 74 235h-121c-28 -91 -53 -169 -72 -235h-57l76 234c-24 1 -39 1 -43 1c-15 0 -32 -1 -52 -2l17 55c20 -2 39 -3 59 -3c12 0 24 1 36 1l40 122c-32 0 -65 0 -99 -2l17 56c24 -2 49 -3 74 -3h25zM358 408c-37 1 -60 1 -71 1h-50l-40 -124c24 -1 39 -1 44 -1
c27 0 54 1 80 2z" />
    <glyph glyph-name="dollar" unicode="$" horiz-adv-x="556" 
d="M248 747h51l-1 -114c94 -3 143 -32 143 -70c0 -23 -17 -43 -39 -43c-31 0 -43 65 -105 69l-3 -197c112 -39 163 -82 163 -166c0 -85 -62 -154 -163 -168v-114h-51l2 112c-102 3 -156 35 -156 80c0 27 20 47 40 47c41 0 45 -84 118 -84l2 219c-107 35 -159 83 -159 159
c0 77 60 140 159 153zM250 589c-54 -8 -85 -42 -85 -88c0 -43 28 -71 85 -94v182zM293 305v-204c55 10 90 54 90 108c0 44 -30 73 -90 96z" />
    <glyph glyph-name="percent" unicode="%" horiz-adv-x="880" 
d="M628 713l39 -21c-160 -270 -301 -508 -420 -715l-37 19l397 683c-61 -37 -113 -59 -168 -59c-36 0 -69 10 -103 24c24 -34 37 -82 37 -138c0 -124 -67 -206 -165 -206c-94 0 -155 77 -155 200c0 126 70 206 159 206c23 0 46 -3 72 -13c59 -19 109 -33 157 -33
c54 0 117 17 187 53zM209 669c-52 0 -78 -50 -78 -149c0 -119 31 -182 86 -182c52 0 78 49 78 146c0 121 -31 185 -86 185zM506 185c0 126 68 207 166 207c93 0 155 -79 155 -192c0 -135 -66 -214 -165 -214c-94 0 -156 76 -156 199zM662 354c-52 0 -78 -49 -78 -148
c0 -119 31 -183 86 -183c52 0 78 50 78 147c0 121 -31 184 -86 184z" />
    <glyph glyph-name="ampersand" unicode="&#x26;" horiz-adv-x="831" 
d="M476 88c-72 -70 -145 -104 -215 -104c-110 0 -195 84 -195 194c0 95 61 167 177 203c-54 56 -81 111 -81 160c0 87 78 161 164 161c90 0 153 -60 153 -138c0 -66 -45 -122 -136 -178l167 -202c84 93 113 190 113 218c0 32 -17 39 -63 39v36c48 -5 84 -7 108 -7
c25 0 61 3 107 7v-37h-11c-53 0 -57 -14 -77 -57c-43 -92 -89 -169 -150 -230l20 -24c43 -52 79 -79 120 -79c29 0 64 16 100 50l20 -21c-50 -67 -105 -101 -161 -101c-60 0 -99 39 -160 110zM451 119l-185 232c-79 -27 -118 -75 -118 -143c0 -85 70 -156 155 -156
c48 0 95 23 148 67zM321 412c52 35 82 90 82 145c0 60 -36 101 -86 101c-48 0 -80 -37 -80 -88c0 -44 27 -102 84 -158z" />
    <glyph glyph-name="quoteright" unicode="&#x2019;" horiz-adv-x="278" 
d="M143 712c42 -32 66 -53 66 -89c0 -42 -44 -115 -136 -186l-26 32c42 33 68 71 80 119c-32 20 -48 35 -48 54c0 17 14 29 36 47z" />
    <glyph glyph-name="parenleft" unicode="(" horiz-adv-x="419" 
d="M372 767l25 -26c-121 -134 -183 -289 -183 -453c0 -166 62 -311 187 -447l-26 -30c-163 126 -243 285 -243 485c0 185 82 349 240 471z" />
    <glyph glyph-name="parenright" unicode=")" horiz-adv-x="419" 
d="M48 767c157 -122 239 -286 239 -471c0 -199 -79 -359 -242 -485l-26 30c125 136 187 281 187 441c0 171 -61 324 -183 459z" />
    <glyph glyph-name="asterisk" unicode="*" horiz-adv-x="454" 
d="M227 713l39 -22c-17 -53 -24 -91 -24 -111c0 -4 2 -8 5 -8c11 0 41 27 91 79l38 -22l1 -44c-75 -20 -113 -34 -113 -45c0 -9 38 -25 113 -44l-1 -44l-38 -21c-51 52 -80 78 -89 78c-4 0 -7 -3 -7 -8c0 -21 8 -58 24 -111l-39 -22l-38 22c16 59 23 96 23 110v2
c0 3 -3 7 -7 7c-9 0 -38 -26 -89 -78l-38 21v44c76 19 113 35 113 44c0 10 -38 25 -113 45v44l38 22c50 -52 79 -79 90 -79c3 0 6 3 6 9c0 12 -6 49 -23 110z" />
    <glyph glyph-name="plus" unicode="+" horiz-adv-x="833" 
d="M388 596h58v-269h263v-57h-263v-270h-58v270h-264v57h264v269z" />
    <glyph glyph-name="comma" unicode="," horiz-adv-x="278" 
d="M130 123c42 -32 65 -53 65 -89c0 -42 -44 -115 -136 -186l-26 32c42 33 69 71 81 119c-32 20 -49 35 -49 54c0 17 14 29 36 47z" />
    <glyph glyph-name="hyphen" unicode="-" horiz-adv-x="350" 
d="M32 207c11 25 19 50 26 77c44 -1 83 -2 117 -2s82 0 142 2c-10 -26 -19 -52 -26 -77c-57 2 -99 2 -127 2c-27 0 -71 0 -132 -2z" />
    <glyph glyph-name="period" unicode="." horiz-adv-x="278" 
d="M130 127l39 -29c20 -15 31 -28 31 -41c0 -17 -10 -29 -29 -43l-38 -28l-36 28c-19 14 -31 26 -31 43s12 27 29 41z" />
    <glyph glyph-name="slash" unicode="/" horiz-adv-x="461" 
d="M423 761l52 -24c-202 -376 -350 -653 -440 -830l-52 23c182 335 329 612 440 831z" />
    <glyph glyph-name="zero" unicode="0" horiz-adv-x="556" 
d="M38 330c0 237 104 376 247 376c140 0 232 -123 232 -346c0 -236 -103 -374 -247 -374c-140 0 -232 125 -232 344zM269 653c-96 0 -142 -92 -142 -279c0 -222 58 -335 161 -335c96 0 142 94 142 282c0 219 -59 332 -161 332z" />
    <glyph glyph-name="one" unicode="1" horiz-adv-x="556" 
d="M337 706c-9 -176 -9 -325 -9 -446c0 -35 -1 -65 -1 -91c0 -99 8 -136 83 -136c6 0 13 1 20 1v-34c-67 3 -118 4 -153 4c-28 0 -76 -1 -145 -4v33h15c63 0 85 7 95 51c5 21 10 155 10 401c0 43 -2 93 -3 150c-40 -1 -83 -5 -128 -11l-6 37c71 12 145 27 222 45z" />
    <glyph glyph-name="two" unicode="2" horiz-adv-x="556" 
d="M149 84c66 -1 112 -2 140 -2h61c81 0 111 6 127 73l31 -10c-18 -48 -31 -95 -38 -145c-91 3 -171 5 -240 5c-59 0 -122 -2 -191 -5l-15 33c221 189 329 361 329 465c0 82 -54 143 -128 143c-58 0 -102 -34 -146 -101l-38 22c54 96 122 144 208 144
c111 0 201 -88 201 -195c0 -116 -109 -242 -301 -427z" />
    <glyph glyph-name="three" unicode="3" horiz-adv-x="556" 
d="M278 387c8 1 16 1 23 1c107 0 172 -65 172 -170c0 -125 -123 -232 -265 -232c-91 0 -164 42 -164 86c0 19 22 42 41 42c22 0 31 -15 49 -33c28 -30 57 -45 98 -45c81 0 147 67 147 160c0 84 -52 144 -130 144c-27 0 -58 -7 -93 -21l-14 34c130 57 195 120 195 188
c0 58 -43 106 -107 106c-47 0 -89 -28 -130 -83l-36 21c45 81 109 121 189 121c100 0 173 -69 173 -152c0 -72 -49 -127 -148 -167z" />
    <glyph glyph-name="four" unicode="4" horiz-adv-x="556" 
d="M345 702h64c-5 -137 -7 -278 -7 -421h15c32 0 68 2 109 5c-6 -22 -12 -44 -16 -67c-36 2 -72 3 -108 3v-103c0 -67 4 -85 64 -85h13v-34c-52 3 -93 4 -120 4c-23 0 -61 -1 -117 -4v34c6 0 12 -1 18 -1c59 0 65 24 65 101v88c-56 0 -99 1 -129 1c-24 0 -74 -1 -150 -2
l-20 45c70 85 113 140 132 166l48 66c38 53 87 119 139 204zM325 590l-216 -305c66 -2 126 -4 181 -4h35v309z" />
    <glyph glyph-name="five" unicode="5" horiz-adv-x="556" 
d="M471 697c-12 -27 -22 -55 -29 -85c-58 -5 -113 -8 -164 -8c-22 0 -51 1 -86 2l-33 -211c42 20 81 31 123 31c114 0 201 -85 201 -201c0 -132 -117 -239 -261 -239c-92 0 -164 43 -164 86c0 19 22 42 41 42c22 0 32 -15 49 -33c28 -29 55 -45 96 -45c83 0 147 66 147 173
c0 93 -57 149 -146 149c-36 0 -71 -11 -104 -33l-39 17l44 350c70 -3 125 -5 163 -5c65 0 118 3 162 10z" />
    <glyph glyph-name="six" unicode="6" horiz-adv-x="556" 
d="M156 369c58 41 106 64 158 64c104 0 188 -87 188 -214c0 -137 -94 -233 -222 -233c-127 0 -218 109 -218 293c0 255 159 425 337 425c50 0 76 -18 76 -50c0 -21 -13 -36 -31 -36s-49 20 -97 20c-108 0 -181 -95 -191 -269zM153 318c-1 -14 -1 -27 -1 -40
c0 -160 51 -243 141 -243c73 0 125 57 125 154c0 111 -58 178 -139 178c-39 0 -81 -17 -126 -49z" />
    <glyph glyph-name="seven" unicode="7" horiz-adv-x="556" 
d="M128 -4c113 216 213 418 304 611c-91 1 -149 2 -175 2h-44c-79 0 -105 -5 -119 -76l-34 9c13 50 20 99 23 150c73 -3 134 -5 183 -5c71 0 152 1 243 4l14 -29c-41 -49 -160 -271 -291 -666h-104z" />
    <glyph glyph-name="eight" unicode="8" horiz-adv-x="556" 
d="M298 403c58 36 87 83 87 142c0 66 -46 116 -113 116c-62 0 -110 -51 -110 -112s45 -109 136 -146zM328 379c107 -46 158 -104 158 -192c0 -110 -99 -202 -222 -202c-116 0 -204 84 -204 182c0 78 51 142 153 191c-89 40 -132 95 -132 172c0 96 92 177 199 177
c101 0 179 -70 179 -159c0 -70 -43 -126 -131 -169zM244 331c-66 -43 -99 -92 -99 -154c0 -87 55 -145 134 -145c67 0 125 58 125 135c0 80 -51 123 -160 164z" />
    <glyph glyph-name="nine" unicode="9" horiz-adv-x="556" 
d="M394 384c0 182 -45 272 -139 272c-73 0 -122 -55 -122 -149c0 -107 56 -173 139 -173c39 0 79 17 122 50zM391 331c-56 -44 -108 -65 -158 -65c-103 0 -185 88 -185 211c0 130 87 229 215 229c136 0 221 -107 221 -295c0 -255 -153 -424 -335 -424c-49 0 -75 17 -75 47
c0 21 12 33 34 33c18 0 45 -17 87 -17c117 0 182 94 196 281z" />
    <glyph glyph-name="colon" unicode=":" horiz-adv-x="278" 
d="M130 447l39 -29c20 -15 31 -28 31 -41c0 -17 -10 -29 -29 -43l-38 -28l-36 28c-19 14 -31 26 -31 43s12 27 29 41zM130 127l39 -29c20 -15 31 -28 31 -41c0 -17 -10 -29 -29 -43l-38 -28l-36 28c-19 14 -31 26 -31 43s12 27 29 41z" />
    <glyph glyph-name="semicolon" unicode=";" horiz-adv-x="278" 
d="M130 447l39 -29c20 -15 31 -28 31 -41c0 -17 -10 -29 -29 -43l-38 -28l-36 28c-19 14 -31 26 -31 43s12 27 29 41zM130 123c42 -32 65 -53 65 -89c0 -42 -44 -115 -136 -186l-26 32c42 33 69 71 81 119c-32 20 -49 35 -49 54c0 17 14 29 36 47z" />
    <glyph glyph-name="less" unicode="&#x3c;" horiz-adv-x="833" 
d="M704 559v-62l-488 -199l488 -198v-63l-575 236v50z" />
    <glyph glyph-name="equal" unicode="=" horiz-adv-x="833" 
d="M124 420h585v-57h-585v57zM124 233h585v-57h-585v57z" />
    <glyph glyph-name="greater" unicode="&#x3e;" horiz-adv-x="833" 
d="M129 559l575 -236v-50l-575 -236v63l488 198l-488 199v62z" />
    <glyph glyph-name="question" unicode="?" horiz-adv-x="470" 
d="M161 191h-37c1 16 1 31 1 47c0 41 -2 81 -5 118c130 31 200 99 200 177c0 64 -50 111 -116 111c-62 0 -96 -45 -122 -45c-19 0 -34 15 -34 37c0 41 43 74 112 74c131 0 226 -89 226 -202c0 -103 -62 -153 -175 -208c-36 -17 -50 -18 -50 -86v-23zM144 117l34 -26
c17 -13 26 -25 26 -41c0 -17 -7 -26 -23 -38l-37 -29l-35 27c-18 14 -26 26 -26 41c0 17 8 26 24 38z" />
    <glyph glyph-name="at" unicode="@" horiz-adv-x="1000" 
d="M608 407c-21 13 -38 20 -57 20c-37 0 -75 -27 -105 -81c-27 -49 -47 -125 -47 -175c0 -44 5 -67 28 -67c21 0 67 37 141 109c13 56 26 121 40 194zM560 164c-84 -79 -136 -126 -175 -126c-41 0 -63 36 -63 106c0 69 21 141 60 201c52 80 122 122 193 122
c17 0 35 -3 55 -10l62 26c-45 -187 -67 -303 -67 -351c0 -30 13 -45 38 -45c63 0 152 120 152 271c0 147 -99 239 -252 239c-97 0 -192 -45 -266 -132c-71 -83 -110 -187 -110 -287c0 -180 121 -303 307 -303c128 0 270 78 374 226l18 -29c-110 -162 -259 -247 -408 -247
c-215 0 -361 142 -361 341c0 114 50 238 134 326c88 93 206 145 325 145c181 0 306 -122 306 -281c0 -93 -43 -184 -126 -258c-49 -44 -93 -66 -132 -66c-43 0 -67 32 -67 89c0 8 1 22 3 43z" />
    <glyph glyph-name="A" unicode="A" horiz-adv-x="722" 
d="M319 697h84c106 -324 180 -522 210 -595c20 -48 29 -68 74 -68h10v-34c-59 3 -99 4 -123 4c-31 0 -74 -1 -129 -4v34h9c45 0 60 8 60 38c0 11 -3 24 -8 40l-48 149c-59 1 -101 2 -126 2c-19 0 -61 0 -124 -1c-38 -97 -60 -158 -60 -185c0 -33 16 -43 58 -43h13v-34
c-54 3 -94 4 -122 4c-21 0 -59 -1 -112 -4v34c46 1 70 16 90 57c14 29 103 230 244 606zM341 605l-112 -292c43 -1 77 -2 102 -2c29 0 66 1 110 2z" />
    <glyph glyph-name="B" unicode="B" horiz-adv-x="622" 
d="M37 32c6 -1 11 -1 16 -1c76 0 64 67 67 254l2 133c1 86 1 143 1 172c0 55 -17 74 -71 74h-4v34c46 -3 86 -4 122 -4c62 0 112 4 149 4c138 0 217 -67 217 -165c0 -73 -38 -120 -123 -167c115 -22 171 -78 171 -169c0 -114 -95 -199 -260 -199c-48 0 -107 5 -178 5
c-17 0 -53 -1 -109 -4v33zM210 63c39 -11 75 -16 109 -16c108 0 168 56 168 148c0 100 -67 146 -201 146c-29 0 -54 -1 -77 -2c0 -41 -1 -81 -1 -119c0 -55 1 -107 2 -157zM209 384c21 -1 42 -1 63 -1c33 0 65 1 97 4c48 34 72 77 72 128c0 81 -54 134 -148 134
c-22 0 -49 -3 -80 -8c-2 -112 -3 -198 -4 -257z" />
    <glyph glyph-name="C" unicode="C" horiz-adv-x="707" 
d="M641 675v-17c0 -50 4 -100 10 -148l-36 -6c-13 94 -93 149 -214 149c-160 0 -254 -101 -254 -286c0 -200 116 -326 273 -326c101 0 177 47 219 138l33 -16c-21 -43 -38 -87 -51 -131c-73 -33 -147 -48 -217 -48c-216 0 -363 146 -363 364c0 217 158 364 380 364
c65 0 139 -12 220 -37z" />
    <glyph glyph-name="D" unicode="D" horiz-adv-x="781" 
d="M210 59c47 -10 93 -15 139 -15c186 0 285 106 285 290c0 197 -110 318 -299 318c-38 0 -78 -3 -120 -9c-3 -193 -5 -343 -5 -451v-133zM37 0v34c6 -1 11 -1 16 -1c76 0 64 66 67 253l2 130c1 82 1 140 1 173c0 55 -17 74 -71 74h-4v34c50 -3 86 -4 106 -4
c93 0 158 8 194 8c249 0 391 -137 391 -343c0 -210 -143 -362 -385 -362c-57 0 -126 8 -205 8c-22 0 -59 -1 -112 -4z" />
    <glyph glyph-name="E" unicode="E" horiz-adv-x="634" 
d="M48 697c114 -4 204 -6 269 -6c72 0 146 2 222 6c1 -49 4 -100 9 -152l-33 -3c-6 89 -51 100 -175 100c-33 0 -74 -1 -122 -2c-1 -101 -4 -185 -5 -254h15c53 0 96 -1 130 -1c83 0 115 8 118 62l31 -3c-5 -43 -7 -77 -7 -104c0 -17 2 -44 4 -78l-32 -1v4
c0 65 -37 71 -137 71h-122c0 -46 -1 -88 -1 -127c0 -56 1 -106 2 -149c33 -4 74 -6 124 -6c133 0 186 6 223 115l35 -12c-19 -53 -34 -105 -45 -157c-103 4 -191 6 -262 6c-78 0 -162 -3 -252 -6v32c6 -1 11 -1 16 -1c76 0 64 67 67 254l2 133c1 86 1 143 1 172
c0 55 -17 74 -71 74h-4v33z" />
    <glyph glyph-name="F" unicode="F" horiz-adv-x="585" 
d="M37 32c7 -1 13 -1 19 -1c60 0 67 38 67 140c0 32 -1 69 -1 114v133c0 55 1 112 1 172c0 54 -17 74 -71 74h-8v33c112 -3 202 -5 270 -5c71 0 146 2 225 5c0 -54 4 -106 9 -156l-34 -4c-5 94 -47 105 -174 105c-39 0 -80 -1 -122 -2c-1 -115 -4 -201 -5 -259h16
c50 0 90 -1 123 -1c84 0 117 8 120 62l31 -2c-4 -38 -7 -72 -7 -104c0 -19 1 -46 3 -80l-32 -2v8c0 63 -37 69 -135 69h-119v-190c0 -83 7 -107 79 -107h19v-34c-56 3 -104 4 -143 4c-18 0 -61 -1 -131 -5v33z" />
    <glyph glyph-name="G" unicode="G" horiz-adv-x="742" 
d="M649 674c1 -52 7 -102 16 -150l-37 -8c-18 92 -85 136 -212 136c-170 0 -269 -104 -269 -288c0 -202 121 -325 294 -325c39 0 76 8 116 23c2 49 3 84 3 107c0 96 -2 117 -100 117h-7v33c64 -3 110 -4 137 -4c42 0 84 1 126 4v-33c-66 0 -66 -22 -66 -114v-51
c0 -29 0 -62 4 -98c-81 -17 -159 -39 -240 -39c-229 0 -373 146 -373 360c0 218 161 368 394 368c69 0 140 -12 214 -38z" />
    <glyph glyph-name="H" unicode="H" horiz-adv-x="794" 
d="M38 697c53 -3 95 -4 124 -4c35 0 76 1 125 4v-34h-13c-66 0 -68 -36 -68 -134v-144c61 -2 117 -2 166 -2c44 0 113 0 211 2v136c0 104 -2 142 -68 142h-13v34c49 -3 91 -4 126 -4c29 0 70 1 123 4v-34c-5 0 -9 1 -13 1c-57 0 -65 -35 -65 -125c0 -33 1 -74 1 -123v-130
c0 -49 -1 -90 -1 -124c0 -93 8 -129 65 -129c5 0 11 0 17 1v-34c-60 3 -103 4 -127 4c-30 0 -73 -1 -130 -4v34c6 0 12 -1 17 -1c63 0 68 34 68 128v166c-66 1 -130 2 -190 2c-56 0 -86 -1 -90 -1c-9 0 -42 0 -97 -1v-155c0 -102 3 -139 69 -139c5 0 11 1 17 1v-34
c-57 3 -100 4 -130 4c-25 0 -67 -1 -127 -4v34c6 -1 12 -1 17 -1c57 0 65 36 65 129c0 34 -1 75 -1 124v130c0 45 1 83 1 114c0 96 -7 134 -66 134c-4 0 -8 -1 -13 -1v34z" />
    <glyph glyph-name="I" unicode="I" horiz-adv-x="340" 
d="M37 697c52 -3 97 -4 134 -4c31 0 75 1 132 4v-34h-8c-41 0 -61 -8 -70 -32c-6 -17 -7 -56 -7 -118v-340c0 -59 1 -97 11 -116c9 -17 31 -23 69 -23h10v-34c-65 3 -111 4 -137 4c-32 0 -79 -1 -139 -4v34h10c38 0 60 6 69 23c11 22 12 71 12 152v268c0 83 -1 134 -8 154
c-9 25 -29 32 -69 32h-9v34z" />
    <glyph glyph-name="J" unicode="J" horiz-adv-x="332" 
d="M33 697c48 -2 90 -4 127 -4c36 0 78 2 126 4v-34c-39 -1 -57 -7 -66 -32s-9 -116 -9 -277c0 -102 2 -177 2 -226c0 -85 -5 -150 -48 -213c-43 -62 -101 -94 -170 -94c-53 0 -79 16 -79 50c0 24 17 47 38 47c26 0 54 -31 88 -31c58 0 74 58 74 168v526c0 64 -14 82 -73 82
h-10v34z" />
    <glyph glyph-name="K" unicode="K" horiz-adv-x="693" 
d="M38 697c53 -3 95 -4 124 -4c35 0 77 1 125 3v-32h-6c-70 0 -74 -33 -74 -135v-357c0 -105 2 -139 71 -139c5 0 10 1 16 1v-34c-56 3 -100 4 -132 4c-25 0 -67 -1 -127 -4v34c6 -1 11 -1 16 -1c59 0 66 41 66 148c0 29 -1 64 -1 105v130c0 45 1 83 1 114
c0 96 -7 134 -66 134c-4 0 -8 -1 -13 -1v34zM427 697c47 -3 88 -4 122 -4c24 0 59 1 108 4v-33h-4c-59 0 -77 -20 -112 -53l-242 -232l223 -224c73 -74 113 -122 163 -122c4 0 9 0 13 1v-34c-37 2 -67 4 -90 4c-21 0 -52 -1 -93 -4c1 2 1 3 1 5c0 36 -114 134 -309 335
l188 203c53 58 84 87 84 100c0 15 -13 21 -40 21h-12v33z" />
    <glyph glyph-name="L" unicode="L" horiz-adv-x="572" 
d="M48 698c55 -3 96 -5 123 -5c34 0 75 1 123 4v-34c-5 0 -10 1 -15 1c-60 0 -66 -41 -66 -149v-97l1 -358c37 -2 70 -3 99 -3c139 0 192 3 229 118l35 -11c-21 -59 -36 -113 -47 -164c-96 3 -189 5 -277 5c-63 0 -135 -2 -216 -6v33c6 -1 11 -1 16 -1c76 0 65 67 67 254
l1 133c0 40 1 73 1 102c0 107 -9 144 -70 144h-4v34z" />
    <glyph glyph-name="M" unicode="M" horiz-adv-x="910" 
d="M455 171l141 320c47 106 76 170 76 200c0 2 -1 4 -1 6c38 -2 69 -3 93 -3c23 0 53 1 89 3v-34h-6c-54 0 -74 -15 -74 -67c0 -3 1 -63 7 -175l8 -137c7 -122 11 -195 17 -220c4 -19 25 -30 58 -30h12v-34c-60 3 -103 4 -127 4c-29 0 -71 -1 -127 -4v35c8 0 15 -1 21 -1
c50 0 66 15 66 61c0 9 0 31 -2 64l-19 420l-200 -460c-6 -13 -24 -46 -37 -108h-32c-7 32 -21 63 -36 97l-197 446c-12 -209 -22 -351 -22 -427v-5c0 -68 1 -88 71 -88h10v-33c-47 2 -85 3 -117 3c-21 0 -59 -1 -111 -4v34h14c35 0 52 7 63 31s14 98 23 224l9 118
c8 109 13 177 13 201c0 47 -23 56 -79 56v33c35 -2 66 -4 92 -4c22 0 51 2 88 4v-3c0 -50 80 -220 216 -523z" />
    <glyph glyph-name="N" unicode="N" horiz-adv-x="808" 
d="M30 697c34 -3 63 -4 87 -4c18 0 45 1 82 4c10 -24 26 -47 46 -71l403 -477c-5 290 -5 448 -12 474c-8 31 -26 40 -69 40h-15v34c44 -2 82 -4 115 -4s72 2 116 4v-34c-6 1 -11 1 -16 1c-76 0 -64 -67 -67 -254l-2 -130c-1 -54 -1 -102 -1 -143c0 -64 1 -113 6 -145h-55
c-8 21 -31 47 -63 84l-419 493c2 -303 3 -468 10 -495c8 -31 26 -40 68 -40h15v-34c-46 2 -85 4 -115 4c-27 0 -65 -1 -114 -4v34c6 -1 11 -1 16 -1c76 0 64 66 67 253l2 130c1 82 1 140 1 173c0 55 -17 74 -73 74h-13v34z" />
    <glyph glyph-name="O" unicode="O" horiz-adv-x="802" 
d="M401 713c97 0 174 -27 238 -87c75 -71 117 -168 117 -275c0 -109 -45 -209 -122 -278c-62 -55 -150 -89 -234 -89c-105 0 -193 39 -260 114c-61 69 -94 157 -94 252c0 103 40 197 113 266c67 63 153 97 242 97zM648 334c0 195 -114 324 -258 324
c-137 0 -236 -106 -236 -287c0 -203 117 -332 257 -332c136 0 237 108 237 295z" />
    <glyph glyph-name="P" unicode="P" horiz-adv-x="589" 
d="M37 32c7 -1 13 -1 19 -1c60 0 67 39 67 145c0 30 -1 67 -1 109v306c0 55 -16 73 -70 73h-4v34c50 -3 94 -4 131 -4c65 0 115 4 151 4c147 0 235 -81 235 -193c0 -133 -92 -218 -268 -218c-17 0 -46 2 -86 6v-147c0 -86 6 -112 77 -112h17v-34c-54 3 -103 4 -143 4
c-18 0 -59 -1 -125 -5v33zM211 338c19 -3 42 -6 70 -6c123 0 187 56 187 160c0 93 -66 155 -174 155c-27 0 -54 -2 -81 -7c-2 -128 -2 -229 -2 -302z" />
    <glyph glyph-name="Q" unicode="Q" horiz-adv-x="802" 
d="M648 334c0 195 -114 324 -258 324c-137 0 -236 -106 -236 -287c0 -203 115 -331 261 -331c134 0 233 109 233 294zM522 12l112 -67c86 -51 152 -84 222 -84c21 0 48 4 79 10l6 -30c-64 -18 -116 -32 -162 -32c-109 0 -213 74 -368 179c-7 0 -14 -1 -21 -1
c-201 0 -344 155 -344 361c0 105 40 198 113 268c66 63 152 97 242 97c97 0 174 -28 237 -87c75 -71 118 -168 118 -275c0 -161 -85 -285 -234 -339z" />
    <glyph glyph-name="R" unicode="R" horiz-adv-x="703" 
d="M37 32c6 -1 11 -1 16 -1c76 0 64 67 67 254l2 133c1 86 1 143 1 172c0 55 -17 74 -71 74h-4v34c49 -3 92 -4 127 -4c60 0 108 4 146 4c138 0 228 -83 228 -185c0 -78 -42 -140 -128 -184l91 -138c70 -106 105 -167 170 -167h5v-28c-24 -2 -46 -5 -67 -5
c-74 0 -105 19 -141 68c-22 30 -66 115 -153 239c-27 -3 -55 -4 -86 -4h-29v-150c0 -84 6 -110 75 -110h13v-34c-52 3 -98 4 -137 4c-19 0 -60 -1 -125 -5v33zM211 344c36 -3 63 -4 81 -4s42 1 69 3c63 38 91 86 91 155c0 87 -59 150 -162 150c-24 0 -50 -2 -77 -7
c-2 -116 -2 -215 -2 -297z" />
    <glyph glyph-name="S" unicode="S" horiz-adv-x="541" 
d="M459 676c0 -46 5 -93 17 -141l-38 -7c-11 80 -61 119 -155 119c-88 0 -145 -48 -145 -112c0 -90 87 -109 207 -150c103 -36 153 -90 153 -176c0 -125 -101 -218 -269 -218c-62 0 -120 10 -180 31c1 11 1 21 1 31c0 45 -5 90 -16 136l44 10c11 -106 64 -154 175 -154
c97 0 163 54 163 130c0 90 -67 101 -173 136c-120 39 -183 92 -183 195c0 110 98 196 233 196c62 0 114 -12 166 -26z" />
    <glyph glyph-name="T" unicode="T" horiz-adv-x="631" 
d="M163 34h17c44 0 62 8 70 40c6 22 8 157 8 405v156h-99c-92 0 -117 -15 -134 -101l-32 7c12 54 19 109 19 164c24 -15 97 -17 216 -17h119c142 0 221 0 251 17c0 -10 -1 -21 -1 -31c0 -43 4 -87 11 -131l-31 -6c-9 84 -41 95 -132 98h-92c-1 -112 -2 -197 -2 -258
c0 -184 1 -287 10 -312c9 -24 28 -31 66 -31h17v-34c-62 3 -109 4 -141 4c-27 0 -74 -1 -140 -4v34z" />
    <glyph glyph-name="U" unicode="U" horiz-adv-x="787" 
d="M292 697v-34c-6 0 -11 1 -16 1c-61 0 -66 -40 -66 -146v-178c0 -79 2 -138 21 -179c31 -69 94 -108 183 -108c66 0 115 19 150 58c45 50 48 116 48 213c0 179 -5 280 -10 299c-9 31 -26 40 -68 40h-7v34c43 -2 80 -4 113 -4s70 2 113 4v-34h-6c-37 0 -55 -8 -64 -32
c-8 -21 -10 -110 -10 -269v-49c0 -73 -2 -136 -25 -190c-36 -85 -129 -139 -252 -139c-85 0 -157 26 -206 72c-63 58 -75 129 -75 229c0 74 2 153 2 240v15c0 90 -2 123 -68 123h-9v34c53 -3 94 -4 123 -4c36 0 79 1 129 4z" />
    <glyph glyph-name="V" unicode="V" horiz-adv-x="717" 
d="M7 697c56 -3 99 -4 127 -4c36 0 79 1 130 4v-33c-50 -2 -68 -8 -68 -34c0 -22 9 -52 23 -92l147 -411c114 286 179 450 179 498c0 34 -17 39 -67 41v31c44 -3 82 -4 114 -4c26 0 64 1 112 4v-34h-7c-63 0 -70 -41 -105 -125c-141 -338 -216 -519 -219 -546h-60
c0 8 -46 161 -155 450c-57 152 -79 225 -138 225c-4 0 -8 0 -13 -1v31z" />
    <glyph glyph-name="W" unicode="W" horiz-adv-x="1037" 
d="M350 122l150 373l-30 96c-18 56 -27 73 -70 73c-6 0 -13 0 -20 -1v34c49 -3 88 -5 119 -5c30 0 72 2 126 5v-34h-13c-43 0 -58 -5 -58 -31c0 -20 9 -47 21 -83l139 -427c105 300 166 465 166 503c0 32 -16 38 -60 38h-13v34c47 -3 84 -4 110 -4c30 0 67 1 110 4v-34h-8
c-18 0 -30 -3 -40 -10c-18 -14 -49 -102 -108 -259l-41 -108c-60 -161 -99 -257 -107 -294h-57c-9 35 -20 65 -28 90l-113 340l-132 -328c-7 -18 -23 -50 -37 -102h-57c-5 34 -42 128 -98 284l-53 146c-60 165 -71 243 -124 243c-5 0 -10 -1 -15 -2v34c47 -3 84 -4 110 -4
c32 0 71 1 117 4v-34c-44 0 -58 -5 -58 -31c0 -21 11 -51 26 -93z" />
    <glyph glyph-name="X" unicode="X" horiz-adv-x="711" 
d="M45 697c51 -3 91 -4 119 -4c35 0 76 1 125 4v-34h-18c-24 0 -37 -8 -37 -20c0 -13 16 -40 46 -86l86 -132l75 108c39 56 62 90 62 107c0 15 -15 23 -44 23h-10v34c47 -3 83 -4 107 -4c30 0 66 1 109 4v-34c-5 1 -9 1 -14 1c-53 0 -76 -45 -134 -123l-121 -161l168 -246
c43 -64 69 -101 116 -101c4 0 8 0 12 1v-34c-58 3 -102 4 -132 4c-24 0 -66 -1 -126 -4v34h13c32 0 49 7 49 24c0 14 -13 32 -32 60l-126 187l-86 -123c-48 -68 -73 -108 -73 -125c0 -16 16 -24 48 -24c6 0 11 1 17 1v-34c-55 3 -94 4 -116 4c-27 0 -67 -1 -119 -4v34
c5 -1 10 -1 14 -1c49 0 74 34 115 89l170 227l-156 236c-32 48 -49 78 -98 78h-9v34z" />
    <glyph glyph-name="Y" unicode="Y" horiz-adv-x="659" 
d="M9 697c55 -3 97 -4 124 -4c30 0 70 1 120 3v-33h-7c-36 0 -55 -8 -55 -22s14 -35 34 -70l118 -210c106 170 160 264 160 279c0 17 -17 23 -51 23h-8v34c45 -3 80 -4 102 -4c29 0 63 1 104 4v-33c-5 1 -9 1 -13 1c-53 0 -76 -57 -147 -167l-123 -188l2 -174
c1 -77 6 -102 74 -102h17v-34c-62 3 -110 4 -142 4c-27 0 -74 -1 -140 -4v34c7 0 14 -1 20 -1c61 0 73 25 74 101l2 173l-158 266c-35 58 -50 92 -90 92c-5 0 -11 -1 -17 -2v34z" />
    <glyph glyph-name="Z" unicode="Z" horiz-adv-x="667" 
d="M76 697c68 -8 150 -9 244 -9h116c55 0 117 1 184 9l14 -27c-31 -28 -56 -59 -80 -91l-386 -514c59 -1 112 -1 158 -1c108 0 179 2 215 10c39 8 65 45 88 112l33 -10c-20 -59 -35 -117 -44 -176c-80 8 -182 11 -304 11h-37c-75 0 -155 -1 -242 -11l-16 29
c29 24 51 55 76 88l386 518h-164c-158 0 -218 -8 -235 -102l-32 9c16 51 24 102 26 155z" />
    <glyph glyph-name="bracketleft" unicode="[" horiz-adv-x="419" 
d="M141 751c46 -4 84 -4 114 -4h127v-42h-28c-37 0 -83 -3 -137 -8l-7 -818c42 -7 83 -10 125 -10c4 0 18 0 40 1v-42h-116c-29 0 -71 -1 -125 -3c6 263 8 460 8 591c0 107 0 218 -1 335z" />
    <glyph glyph-name="backslash" unicode="\" horiz-adv-x="461" 
d="M30 761c111 -218 259 -494 441 -830l-52 -24c-84 166 -233 442 -441 830z" />
    <glyph glyph-name="bracketright" unicode="]" horiz-adv-x="419" 
d="M283 751c-3 -196 -5 -339 -5 -432c0 -32 0 -197 2 -494c-72 2 -123 3 -155 3h-86v43c18 -1 28 -2 31 -2c43 0 88 5 135 10l1 818c-64 4 -108 8 -133 8h-31v42h96c38 0 87 0 145 4z" />
    <glyph glyph-name="asciicircum" unicode="^" horiz-adv-x="1000" 
d="M456 714h87l254 -276h-45l-253 213l-254 -213h-44z" />
    <glyph glyph-name="underscore" unicode="_" 
d="M0 -178h500v-58h-500v58z" />
    <glyph glyph-name="quoteleft" unicode="&#x2018;" horiz-adv-x="278" 
d="M193 729l27 -32c-42 -33 -69 -71 -81 -119c32 -20 48 -34 48 -54c0 -17 -13 -29 -35 -47l-29 -23c-42 32 -66 54 -66 89c0 42 44 115 136 186z" />
    <glyph glyph-name="a" unicode="a" horiz-adv-x="481" 
d="M303 236c-127 -35 -187 -46 -187 -110c0 -41 28 -73 75 -73c29 0 65 16 110 45zM469 71l14 -31c-53 -38 -93 -55 -116 -55c-41 0 -62 24 -64 74c-63 -43 -110 -67 -151 -67c-67 0 -116 58 -116 128c0 106 81 108 269 155c1 30 2 52 2 66c0 67 -27 99 -85 99
c-56 0 -90 -22 -90 -57c0 -5 1 -9 1 -13c0 -22 -25 -35 -50 -35c-23 0 -34 7 -34 24c0 43 96 135 202 135c90 0 138 -50 138 -147c0 -79 -9 -160 -9 -243c0 -37 5 -54 32 -54c13 0 31 8 57 21z" />
    <glyph glyph-name="b" unicode="b" horiz-adv-x="556" 
d="M174 757c-4 -105 -8 -204 -8 -298v-32c60 40 110 63 162 63c105 0 197 -98 197 -228c0 -150 -101 -269 -281 -269c-55 0 -108 7 -161 22c4 218 6 346 6 384v65c0 47 1 86 1 117c0 76 -5 106 -36 106c-7 0 -16 -1 -29 -3l-5 31c51 10 102 24 154 42zM175 64
c30 -16 59 -23 93 -23c108 0 174 71 174 190c0 120 -65 195 -150 195c-40 0 -79 -14 -124 -39c-1 -86 -1 -136 -1 -150c0 -91 2 -149 8 -173z" />
    <glyph glyph-name="c" unicode="c" horiz-adv-x="447" 
d="M405 96l24 -37c-66 -50 -128 -73 -180 -73c-128 0 -217 102 -217 244c0 148 117 264 264 264c77 0 118 -23 118 -61c0 -28 -21 -49 -41 -49c-21 0 -59 49 -121 49c-83 0 -138 -63 -138 -170c0 -133 64 -210 170 -210c41 0 79 14 121 43z" />
    <glyph glyph-name="d" unicode="d" horiz-adv-x="562" 
d="M480 757c-2 -59 -6 -174 -10 -344l-1 -76c-1 -29 -2 -86 -2 -170v-19c0 -82 1 -113 26 -113c11 0 24 2 40 8l8 -31c-44 -17 -87 -26 -133 -26h-14c-4 24 -7 49 -7 73c-59 -38 -107 -63 -162 -63c-111 0 -193 92 -193 233c0 157 105 257 248 257c35 0 72 -7 112 -19
c1 34 3 89 3 167c0 38 -10 56 -41 56c-7 0 -18 -2 -32 -5l-6 32c52 9 107 23 164 40zM390 401c-42 24 -80 36 -121 36c-100 0 -157 -65 -157 -179c0 -123 59 -198 148 -198c38 0 79 15 127 42z" />
    <glyph glyph-name="e" unicode="e" horiz-adv-x="488" 
d="M364 324c-20 82 -62 124 -116 124c-60 0 -110 -50 -124 -139c111 0 191 3 240 15zM454 273h-238c-33 0 -65 -1 -95 -4v-18c0 -129 63 -200 169 -200c50 0 95 17 144 49l19 -31c-68 -56 -135 -83 -199 -83c-124 0 -218 97 -218 241c0 155 102 266 222 266
c113 0 186 -78 196 -220z" />
    <glyph glyph-name="f" unicode="f" horiz-adv-x="320" 
d="M184 510l1 -41h33c33 0 66 1 97 3c-1 -19 -2 -36 -2 -50c-37 2 -72 4 -105 4h-21c0 -76 -1 -121 -1 -136c0 -123 1 -197 7 -223c7 -29 27 -34 79 -34v-33c-51 3 -90 5 -117 5c-26 0 -65 -2 -118 -5v33h12c50 0 57 29 57 110c0 31 -1 71 -1 119c0 17 0 71 -1 162h-32
c-3 0 -15 -1 -36 -2v36c27 1 49 7 68 20v9c0 162 81 269 218 269c63 0 97 -23 97 -57c0 -24 -16 -41 -34 -41c-23 0 -64 39 -106 39c-76 0 -95 -59 -95 -178v-9z" />
    <glyph glyph-name="g" unicode="g" horiz-adv-x="516" 
d="M363 459c37 0 82 1 133 4l-2 -49c-34 4 -70 5 -107 5c31 -24 47 -58 47 -98c0 -84 -78 -161 -190 -161c-13 0 -28 2 -45 3c-17 -11 -33 -24 -46 -38c10 -19 23 -34 39 -47c59 1 104 2 133 2c110 0 166 -28 166 -113c0 -50 -28 -104 -81 -148s-126 -70 -193 -70
c-106 0 -178 65 -178 137c0 50 34 90 96 141c-29 26 -48 53 -60 87c22 20 49 40 85 61c-66 21 -105 73 -105 137c0 98 81 180 196 180c41 0 75 -10 112 -33zM158 7c-30 -34 -46 -63 -46 -91c0 -58 57 -108 143 -108c101 0 172 68 172 126c0 62 -42 72 -121 72
c-18 0 -43 1 -74 1h-74zM247 456c-69 0 -110 -44 -110 -123c0 -86 40 -136 107 -136c68 0 110 45 110 122c0 88 -39 137 -107 137z" />
    <glyph glyph-name="h" unicode="h" horiz-adv-x="586" 
d="M182 755c-3 -109 -5 -223 -6 -343c70 53 127 81 176 81c96 0 144 -54 144 -162c0 -15 -1 -57 -1 -128c0 -33 -1 -60 -1 -82c0 -64 6 -88 47 -88c3 0 8 1 12 1v-34c-46 3 -80 5 -104 5c-23 0 -59 -1 -107 -5v34h7c65 0 63 27 64 124l1 105v20c0 93 -9 147 -93 147
c-40 0 -85 -20 -142 -57l-2 -174c0 -27 -1 -50 -1 -69c0 -73 6 -97 47 -97c4 0 8 1 13 1v-34c-51 4 -86 5 -105 5c-29 0 -65 -2 -109 -4v33c6 0 11 -1 16 -1c57 0 57 31 57 122v36l2 367v84c0 28 -12 42 -36 42c-8 0 -17 -2 -28 -4l-7 32c53 10 104 24 156 43z" />
    <glyph glyph-name="i" unicode="i" horiz-adv-x="297" 
d="M140 729l35 -26c17 -13 26 -26 26 -42c0 -17 -8 -26 -24 -38l-37 -28l-34 27c-18 14 -27 26 -27 41c0 17 9 26 25 38zM193 499c-4 -127 -8 -236 -8 -329v-52c0 -64 4 -86 53 -86c5 0 10 1 15 1v-33c-46 3 -83 5 -110 5c-25 0 -62 -2 -112 -5v34h12c66 0 60 34 61 146
l2 121c0 24 1 44 1 60c0 46 -5 65 -35 65c-5 0 -15 -1 -28 -3l-5 31c52 10 103 25 154 45z" />
    <glyph glyph-name="j" unicode="j" horiz-adv-x="274" 
d="M130 729l35 -26c17 -13 26 -26 26 -42c0 -17 -8 -26 -24 -38l-37 -28l-34 27c-18 14 -27 26 -27 41c0 17 9 26 25 38zM183 499c-5 -123 -6 -229 -6 -318v-68c0 -119 -1 -200 -18 -244c-30 -78 -101 -130 -188 -130h-12l2 39c106 9 136 81 136 224v353c0 50 -2 71 -34 71
c-6 0 -14 -1 -25 -3l-6 31c52 10 102 24 151 45z" />
    <glyph glyph-name="k" unicode="k" horiz-adv-x="546" 
d="M25 34h7c34 0 49 8 57 32c8 27 8 112 9 259l1 95c1 70 3 123 3 163c0 73 -7 101 -40 101c-8 0 -17 -2 -28 -4l-7 32c53 10 104 24 156 43c-6 -279 -8 -441 -8 -486v-176c0 -48 4 -58 64 -59v-32c-45 2 -81 4 -108 4c-20 0 -56 0 -106 -3v31zM381 1v9c0 23 -15 35 -41 64
l-165 186c108 101 170 150 170 173c0 8 -12 13 -35 13h-7v33c41 -2 72 -3 94 -3c29 0 63 1 101 3v-33c-4 1 -8 1 -12 1c-63 0 -122 -66 -230 -163l173 -186c30 -33 48 -65 94 -65c4 0 9 0 14 1l-1 -33c-33 2 -62 4 -87 4c-13 0 -35 -2 -68 -4z" />
    <glyph glyph-name="l" unicode="l" horiz-adv-x="292" 
d="M184 755c-4 -130 -3 -235 -4 -317l-1 -100v-218c0 -61 4 -86 60 -86h11v-34c-55 4 -94 5 -115 5c-23 0 -59 -1 -108 -4v33c6 0 11 -1 16 -1c57 0 57 31 57 122v36l2 367v84c0 28 -12 42 -36 42c-8 0 -18 -2 -29 -4l-7 32c53 9 104 23 154 43z" />
    <glyph glyph-name="m" unicode="m" horiz-adv-x="880" 
d="M181 499c-3 -26 -5 -51 -6 -77c66 42 117 71 175 71c56 0 93 -25 120 -79c74 49 131 79 182 79c101 0 136 -63 136 -184v-10l-2 -161c0 -29 -1 -45 -1 -46c0 -46 10 -58 54 -58h11v-34c-49 3 -85 5 -109 5s-59 -2 -105 -5v34c7 -1 14 -1 20 -1c48 0 52 29 52 119v71
c0 33 1 62 1 87c0 80 -27 121 -93 121c-33 0 -77 -19 -133 -51l-4 -241v-40c0 -51 4 -65 56 -65h6v-34c-44 3 -81 5 -109 5c-18 0 -50 -1 -96 -5v34c44 0 53 4 59 32c4 19 7 102 7 249c0 79 -26 116 -91 116c-32 0 -75 -17 -132 -49c-3 -91 -5 -172 -5 -245
c0 -82 0 -104 52 -104c5 0 10 1 16 1v-34c-50 4 -87 5 -112 5c-21 0 -56 -1 -104 -5v34h9c67 0 61 33 62 146l1 120v48c0 54 -4 78 -34 78c-4 0 -12 -1 -23 -4l-6 30c41 11 90 26 146 47z" />
    <glyph glyph-name="n" unicode="n" horiz-adv-x="584" 
d="M184 499l-6 -82c68 49 122 76 171 76c96 0 144 -54 144 -162c0 -15 -1 -57 -1 -128c0 -33 -1 -60 -1 -82c0 -64 6 -88 47 -88c3 0 8 1 12 1v-34c-46 3 -80 5 -104 5c-23 0 -60 -1 -107 -5v34h7c65 0 63 27 64 124l1 105v18c0 94 -9 149 -93 149c-37 0 -83 -17 -136 -53
c-3 -77 -4 -136 -4 -178v-67c0 -74 4 -99 47 -99c4 0 8 1 13 1v-34c-46 3 -82 5 -106 5c-23 0 -59 -2 -106 -5v34h9c67 0 61 33 62 146l1 120v48c0 54 -4 78 -34 78c-4 0 -12 -1 -23 -4l-6 30c51 10 100 26 149 47z" />
    <glyph glyph-name="o" unicode="o" horiz-adv-x="551" 
d="M281 493c142 0 238 -109 238 -240c0 -150 -108 -266 -247 -266c-142 0 -239 107 -239 248c0 146 115 258 248 258zM268 442c-83 0 -145 -63 -145 -176c0 -140 67 -231 159 -231c87 0 150 67 150 189c0 129 -69 218 -164 218z" />
    <glyph glyph-name="p" unicode="p" horiz-adv-x="560" 
d="M175 505l-4 -78c57 39 107 59 158 59c107 0 189 -96 189 -224c0 -166 -98 -264 -260 -264c-30 0 -61 6 -91 18v-174c0 -58 10 -58 85 -59v-34c-52 3 -92 4 -119 4c-26 0 -66 -2 -120 -5v33c33 1 51 3 60 17c15 25 13 108 14 256l1 111v161c0 67 -2 91 -35 91
c-5 0 -14 -1 -26 -4l-5 30c54 15 104 35 153 62zM168 71c40 -20 80 -30 114 -30c94 0 155 64 155 180c0 128 -63 202 -147 202c-36 0 -79 -12 -119 -36c-4 -145 -4 -229 -4 -251c0 -19 1 -41 1 -65z" />
    <glyph glyph-name="q" unicode="q" horiz-adv-x="558" 
d="M472 498c-2 -65 -5 -176 -6 -331v-175c0 -23 -1 -42 -1 -57v-60c0 -70 4 -95 47 -95c6 0 12 0 20 1v-33c-50 2 -93 3 -127 3c-21 0 -57 -1 -108 -2v32h22c36 0 51 4 59 28c7 21 7 102 8 245c-54 -37 -98 -59 -151 -59c-119 0 -203 94 -203 228c0 153 106 263 251 263
c42 0 84 -10 131 -28c21 11 41 24 58 40zM382 401c-41 25 -79 38 -119 38c-90 0 -149 -63 -149 -179c0 -125 72 -204 156 -204c31 0 70 13 115 38c2 85 2 137 2 156c0 46 0 97 -5 151z" />
    <glyph glyph-name="r" unicode="r" horiz-adv-x="390" 
d="M183 499c-5 -53 -7 -99 -8 -139c49 87 91 131 142 131c36 0 60 -20 60 -55c0 -25 -17 -44 -35 -44c-19 0 -34 19 -59 19c-35 0 -68 -31 -104 -91v-54c0 -109 2 -172 5 -188c6 -34 22 -44 68 -44h14v-33c-51 3 -91 5 -118 5s-67 -1 -121 -5v33h11c56 0 61 27 61 97v210
c0 58 -3 83 -34 83c-7 0 -15 -1 -23 -2l-6 30c48 11 97 27 147 47z" />
    <glyph glyph-name="s" unicode="s" horiz-adv-x="443" 
d="M361 473c0 -40 4 -80 12 -121l-37 -6c-8 68 -43 101 -106 101c-57 0 -94 -35 -94 -79c0 -61 55 -68 146 -94c75 -21 111 -58 111 -124c0 -93 -80 -164 -199 -164c-43 0 -87 9 -133 27c1 9 1 18 1 27c0 32 -4 67 -11 104l37 9c10 -81 50 -121 122 -121c66 0 111 36 111 85
c0 57 -44 66 -119 89c-88 27 -134 62 -134 142c0 81 70 145 177 145c34 0 71 -7 116 -20z" />
    <glyph glyph-name="t" unicode="t" horiz-adv-x="360" 
d="M154 572l32 -10c-3 -26 -6 -56 -7 -90h35c36 0 75 1 115 3l-12 -53c-30 2 -68 4 -114 4h-23c-3 -89 -5 -156 -5 -203c0 -117 6 -177 69 -177c23 0 49 10 84 29l16 -32c-63 -38 -114 -57 -151 -57c-73 0 -100 50 -100 151c0 53 4 149 4 288c-27 -1 -50 -2 -68 -2v35
c63 9 105 47 125 114z" />
    <glyph glyph-name="u" unicode="u" horiz-adv-x="588" 
d="M179 494c-5 -147 -7 -237 -7 -268c0 -110 10 -174 95 -174c35 0 77 17 130 51c2 100 3 165 3 196v33c0 68 -3 93 -50 93c-2 0 -9 0 -22 -1l-3 31c53 4 107 12 161 24c-4 -110 -6 -197 -6 -262c0 -37 -1 -67 -1 -90c0 -54 5 -74 37 -74c7 0 17 2 29 5l4 -30l-149 -38
l-2 73c-66 -50 -119 -77 -165 -77c-90 0 -142 55 -142 146c0 24 1 61 2 110l1 55c0 25 1 46 1 64c0 51 -5 69 -33 69c-8 0 -18 -1 -30 -3l-3 32c49 8 99 20 150 35z" />
    <glyph glyph-name="v" unicode="v" horiz-adv-x="491" 
d="M0 479c40 -3 72 -5 96 -5c23 0 57 2 101 5v-34h-13c-31 0 -44 -7 -44 -30c0 -20 43 -125 113 -321c82 196 126 303 126 324c0 22 -17 28 -53 28v33c33 -3 60 -4 83 -4c18 0 45 1 82 4v-35h-5c-40 0 -47 -34 -75 -97c-94 -210 -147 -328 -152 -359h-54
c0 24 -46 146 -133 368c-22 56 -30 89 -68 89h-4v34z" />
    <glyph glyph-name="w" unicode="w" horiz-adv-x="775" 
d="M6 479c40 -3 70 -4 90 -4c28 0 63 1 103 4v-33h-7c-34 0 -48 -8 -48 -35c0 -8 3 -22 9 -39l94 -270l129 273l-9 27c-11 32 -20 44 -56 44h-14v33c43 -3 75 -4 96 -4c30 0 65 1 107 4v-33c-5 0 -10 -1 -14 -1c-27 0 -39 -9 -39 -28c0 -11 3 -26 10 -46l91 -266
c71 183 111 284 111 309s-12 32 -50 32h-9v33c34 -3 63 -4 87 -4c20 0 47 1 83 4v-32c-20 0 -34 -6 -42 -18c-18 -27 -78 -175 -186 -443h-35l-115 327c-65 -126 -117 -234 -151 -327h-33c-93 256 -139 405 -159 440c-8 13 -19 20 -36 20h-7v33z" />
    <glyph glyph-name="x" unicode="x" horiz-adv-x="530" 
d="M9 34c4 -1 8 -1 12 -1c54 0 105 77 207 205l-110 151c-27 37 -46 58 -72 58c-2 0 -5 -1 -8 -1v34c39 -3 72 -5 98 -5c21 0 52 1 95 4v-33h-4c-22 0 -33 -8 -33 -23c0 -18 30 -57 82 -126c56 73 85 114 85 129c0 16 -11 19 -36 20v33c35 -3 62 -4 81 -4c24 0 52 1 85 4
v-33c-3 1 -6 1 -8 1c-45 0 -88 -68 -182 -183l131 -175c25 -34 41 -55 74 -55h5v-34c-41 2 -74 4 -99 4c-20 0 -52 -2 -97 -4v34h6c24 0 35 6 35 21c0 17 -39 62 -102 149c-66 -85 -99 -134 -99 -151c0 -14 9 -19 29 -19h6v-34c-40 3 -71 4 -93 4c-17 0 -46 -1 -88 -4v34z
" />
    <glyph glyph-name="y" unicode="y" horiz-adv-x="486" 
d="M0 479c40 -3 72 -5 96 -5c23 0 57 2 101 5v-34h-13c-31 0 -44 -7 -44 -30c0 -21 43 -123 111 -315c81 192 123 297 123 318c0 22 -17 28 -53 28v33c33 -3 61 -4 84 -4c18 0 45 1 82 4v-35h-4c-22 0 -36 -9 -46 -29c-5 -11 -43 -101 -119 -270
c-124 -278 -156 -405 -225 -405c-26 0 -46 19 -46 45c0 38 35 29 59 39c33 13 53 70 101 174c-116 298 -150 448 -199 448c-2 0 -5 0 -8 -1v34z" />
    <glyph glyph-name="z" unicode="z" horiz-adv-x="472" 
d="M66 479c55 -4 102 -6 138 -6c84 0 154 0 210 6l17 -27c-36 -29 -72 -75 -115 -134l-173 -237c41 -3 76 -4 104 -4h35c77 0 113 4 127 66l31 -9c-12 -44 -20 -89 -25 -134c-76 4 -145 8 -206 8c-57 0 -112 -3 -168 -8l-16 31c43 32 77 79 116 132l177 240
c-53 1 -93 2 -119 2h-20c-65 0 -91 -2 -103 -58l-32 9c11 40 18 81 22 123z" />
    <glyph glyph-name="braceleft" unicode="{" horiz-adv-x="419" 
d="M420 751v-37c-14 1 -22 1 -24 1c-40 0 -69 -6 -89 -23c-40 -35 -31 -94 -34 -181l-1 -30c-3 -106 -18 -166 -117 -191v-3c99 -25 114 -86 117 -192l1 -29c2 -80 -5 -136 27 -173c18 -22 49 -31 96 -31c2 0 10 0 24 1v-38h-46c-155 0 -174 80 -177 220l-2 94
c-2 94 -25 131 -111 131h-10v36h10c86 0 109 37 111 131l2 95c3 141 22 220 177 220c12 0 28 -1 46 -1z" />
    <glyph glyph-name="bar" unicode="|" 
d="M219 764h62v-1000h-62v1000z" />
    <glyph glyph-name="braceright" unicode="}" horiz-adv-x="419" 
d="M222 532l3 -95c2 -94 24 -131 110 -131h11v-36h-10c-86 0 -109 -37 -111 -131l-3 -94c-3 -140 -22 -220 -177 -220h-45v38c14 -1 22 -1 24 -1c41 0 70 7 88 23c40 35 31 93 34 181l1 29c3 106 18 167 118 192v3c-100 25 -115 85 -118 191l-1 30c-4 137 8 204 -122 204
c-3 0 -11 0 -24 -1v37c9 0 24 1 45 1c155 0 174 -79 177 -220z" />
    <glyph glyph-name="asciitilde" unicode="~" horiz-adv-x="833" 
d="M747 370v-64c-66 -47 -129 -70 -189 -70c-29 0 -60 6 -93 17c-69 23 -128 50 -190 50c-59 0 -117 -28 -188 -78v65c68 47 131 71 189 71c52 0 97 -16 142 -32c48 -17 91 -35 141 -35c60 0 118 27 188 76z" />
    <glyph glyph-name="exclamdown" unicode="&#xa1;" horiz-adv-x="337" 
d="M152 713l34 -26c18 -14 26 -27 26 -42c0 -17 -8 -26 -24 -38l-36 -28l-35 26c-17 13 -26 25 -26 42s8 26 24 38zM129 506h40c2 -134 10 -303 24 -506h-101c2 158 26 325 37 506z" />
    <glyph glyph-name="cent" unicode="&#xa2;" horiz-adv-x="556" 
d="M223 713h47l-3 -166c7 0 13 -1 19 -1c57 0 99 -21 99 -54c0 -22 -15 -40 -32 -40c-29 0 -40 46 -87 49v-293c7 -1 12 -1 13 -1c27 0 60 16 97 46l23 -31c-44 -41 -86 -63 -132 -69l2 -172h-46l1 172c-98 13 -160 89 -160 187c0 108 62 185 162 203zM226 500
c-53 -12 -86 -62 -86 -138s30 -128 86 -149v287z" />
    <glyph glyph-name="sterling" unicode="&#xa3;" horiz-adv-x="556" 
d="M259 354h43c39 0 78 1 118 2v-46c-54 1 -106 2 -156 2c2 -24 4 -41 4 -51c0 -63 -25 -116 -78 -169h19c52 0 107 -20 158 -20c64 0 90 32 97 108l34 -5l-4 -44c-10 -97 -44 -143 -118 -143c-66 0 -143 37 -213 37c-34 0 -65 -14 -100 -40l-22 29c109 67 163 134 163 215
c0 25 -7 52 -17 83c-25 0 -45 -1 -61 -1c-5 0 -24 -1 -55 -1v46c33 -1 69 -2 106 -3c-11 47 -17 88 -17 122c0 143 85 233 191 233c63 0 109 -31 109 -63c0 -21 -18 -39 -35 -39c-33 0 -56 53 -105 53c-47 0 -77 -42 -77 -125c0 -48 9 -108 16 -180z" />
    <glyph glyph-name="fraction" unicode="&#x2044;" horiz-adv-x="167" 
d="M297 711l37 -24c-150 -219 -304 -456 -464 -708l-38 25c154 223 307 459 465 707z" />
    <glyph glyph-name="yen" unicode="&#xa5;" horiz-adv-x="556" 
d="M148 0v33c7 0 14 -1 20 -1c59 0 61 25 61 102v141c-52 0 -105 -1 -160 -2v35c29 -1 57 -1 83 -1h78l-47 97c-33 -1 -71 -2 -114 -3v37h40c15 0 34 0 57 1l-72 152c-21 46 -36 69 -68 69c-4 0 -8 0 -12 -1v34c43 -4 79 -6 107 -6c29 0 65 2 107 6v-34
c-36 0 -54 -5 -54 -24c0 -9 8 -28 22 -59l91 -205l102 205c17 35 26 55 26 61c0 15 -14 22 -41 22h-6v34c34 -3 64 -4 88 -4c19 0 47 1 85 4v-34h-11c-39 0 -44 -21 -64 -59l-87 -161h43c17 0 39 1 66 2v-38c-32 0 -75 1 -127 1l-52 -97h44c44 0 89 1 135 3v-35h-177l1 -129
c1 -89 -1 -113 63 -113h17v-33c-55 4 -97 6 -126 6c-27 0 -66 -3 -118 -6z" />
    <glyph glyph-name="florin" unicode="&#x192;" horiz-adv-x="556" 
d="M304 386h69c5 0 22 0 52 1l-7 -44c-32 1 -71 1 -120 1c-28 -349 -107 -524 -236 -524c-43 0 -69 20 -69 47c0 18 13 31 30 31s40 -18 70 -18c91 0 99 161 122 464c-12 0 -28 -1 -48 -1h-52l7 43h97c21 200 142 320 264 320c50 0 83 -20 83 -49c0 -21 -14 -37 -34 -37
c-24 0 -44 32 -88 32c-78 0 -128 -89 -140 -266z" />
    <glyph glyph-name="section" unicode="&#xa7;" 
d="M276 705c84 0 146 -53 146 -94c0 -27 -19 -48 -41 -48s-26 18 -45 47c-20 31 -46 47 -74 47c-41 0 -74 -35 -74 -83c0 -50 47 -105 126 -183c78 -77 132 -132 132 -241c0 -151 -115 -270 -230 -270c-92 0 -158 57 -158 100c0 27 23 47 44 47c24 0 29 -16 45 -43
c21 -36 51 -55 85 -55c48 0 83 41 83 90c0 68 -53 117 -124 193c-79 84 -131 149 -131 246c0 134 102 247 216 247zM170 630c-42 -40 -64 -93 -64 -148c0 -72 41 -133 110 -207c77 -83 140 -142 140 -223c0 -32 -8 -60 -24 -91c46 50 68 102 68 164c0 97 -59 149 -128 221
c-78 81 -124 143 -124 211c0 23 7 47 22 73z" />
    <glyph glyph-name="currency" unicode="&#xa4;" horiz-adv-x="556" 
d="M542 163c-16 -42 -29 -86 -38 -129c-54 -33 -99 -48 -151 -48c-141 0 -243 113 -265 288h-6c-16 0 -36 -1 -68 -2l12 36c34 -1 42 -1 51 -1h8c-1 13 -1 26 -1 39c0 21 1 41 3 60h-5c-16 0 -36 -1 -68 -2l12 36c32 -1 42 -1 51 -1h15c29 162 134 267 274 267
c48 0 93 -12 153 -36v-17c0 -45 3 -94 7 -142l-26 -5c-10 93 -59 147 -149 147c-93 0 -157 -73 -174 -214h139c13 0 83 0 130 1l-12 -36c-56 1 -132 2 -192 2h-68c-1 -13 -1 -27 -1 -41c0 -20 0 -40 2 -58h141c13 0 44 0 91 1l-12 -36c-56 1 -93 2 -153 2h-63
c22 -148 97 -235 186 -235c75 0 121 50 152 140z" />
    <glyph glyph-name="quotesingle" unicode="'" horiz-adv-x="170" 
d="M93 422h-16l-32 223c-1 7 -1 13 -1 19c0 33 15 50 41 50s42 -17 42 -49c0 -5 -1 -12 -2 -20z" />
    <glyph glyph-name="quotedblleft" unicode="&#x201c;" horiz-adv-x="474" 
d="M193 729l26 -32c-42 -33 -68 -71 -80 -119c32 -20 48 -34 48 -54c0 -17 -14 -29 -36 -47l-28 -23c-42 32 -66 54 -66 89c0 42 44 115 136 186zM390 729l26 -32c-48 -37 -70 -76 -81 -119c32 -20 49 -34 49 -54c0 -17 -14 -29 -36 -47l-29 -23c-42 32 -65 54 -65 89
c0 42 44 115 136 186z" />
    <glyph glyph-name="guillemotleft" unicode="&#xab;" horiz-adv-x="418" 
d="M178 53c-45 65 -92 126 -145 184c50 57 99 120 146 189l37 -22c-33 -61 -61 -116 -85 -165c26 -54 54 -109 85 -166zM330 57c-35 60 -74 121 -114 181c38 58 76 119 114 185l40 -18c-17 -41 -40 -96 -69 -166c20 -51 43 -106 66 -165z" />
    <glyph glyph-name="guilsinglleft" unicode="&#x2039;" horiz-adv-x="265" 
d="M178 53c-45 65 -92 126 -145 184c50 57 99 120 146 189l37 -22c-33 -61 -61 -116 -85 -165c26 -54 54 -109 85 -166z" />
    <glyph glyph-name="guilsinglright" unicode="&#x203a;" horiz-adv-x="265" 
d="M86 426c44 -65 93 -126 146 -185c-50 -57 -99 -120 -146 -189l-37 22c33 62 61 116 85 165c-26 54 -54 110 -85 167z" />
    <glyph glyph-name="fi" unicode="&#xfb01;" horiz-adv-x="590" 
d="M185 521v-52c40 -1 77 -1 111 -1c82 0 144 5 189 26c-4 -134 -6 -244 -6 -330v-50c0 -61 4 -82 52 -82c5 0 10 1 15 1v-33c-49 4 -86 5 -110 5c-25 0 -61 -2 -109 -5v34h12c66 0 60 34 61 146l1 121v40c0 79 -7 85 -84 85h-132c0 -56 -1 -111 -1 -163
c0 -129 0 -199 10 -214c10 -14 27 -17 53 -17h13v-32c-50 4 -87 5 -108 5c-26 0 -63 -2 -115 -5v33h12c50 0 57 29 57 110c0 31 -1 71 -1 119c0 17 0 71 -1 162h-32c-3 0 -15 -1 -36 -2v33c27 1 49 7 68 20c-1 9 -1 18 -1 27c0 158 99 255 231 255c89 0 161 -44 161 -86
c0 -25 -21 -47 -44 -47c-24 0 -34 21 -56 42c-28 27 -58 41 -91 41c-92 0 -118 -66 -119 -186z" />
    <glyph glyph-name="fl" unicode="&#xfb02;" horiz-adv-x="606" 
d="M37 33h12c50 0 57 29 57 110c0 31 -1 71 -1 119c0 17 0 71 -1 162h-32c-3 0 -15 -1 -36 -2v33c27 1 49 7 68 20c-1 9 -1 18 -1 26c0 157 102 254 222 254c37 0 67 -10 96 -33l79 33c-5 -149 -6 -254 -6 -317l-1 -100v-47c0 -60 1 -103 1 -131v-44c0 -59 5 -82 59 -82h11
v-34c-55 4 -93 5 -114 5c-23 0 -60 -1 -109 -4v33c6 0 11 -1 15 -1c58 0 58 32 58 123v35l4 462c-42 32 -84 49 -126 49c-86 0 -108 -67 -108 -187v-47s15 -1 46 -1c7 0 31 1 73 3l-1 -47c-29 2 -61 3 -95 3h-23c0 -50 -1 -105 -1 -163c0 -129 1 -199 11 -214
c10 -14 26 -17 52 -17h13v-32c-49 3 -85 5 -108 5c-25 0 -63 -1 -114 -5v33z" />
    <glyph glyph-name="endash" unicode="&#x2013;" 
d="M17 272h483l-17 -53h-483z" />
    <glyph glyph-name="dagger" unicode="&#x2020;" 
d="M250 713l68 -40c-30 -46 -45 -95 -49 -152c51 2 96 15 141 42l35 -59l-36 -64c-41 26 -86 40 -140 46c2 -79 14 -140 46 -188c-32 -87 -42 -199 -42 -339c0 -32 1 -67 2 -103h-50c1 64 1 103 1 117c0 123 -8 230 -41 325c32 50 43 111 45 188c-54 -6 -99 -20 -140 -46
l-36 64l36 59c45 -27 90 -40 141 -42c-4 57 -20 106 -50 152z" />
    <glyph glyph-name="daggerdbl" unicode="&#x2021;" 
d="M250 713l62 -37c-22 -35 -34 -77 -41 -131c44 2 85 15 128 43l33 -60l-33 -62c-39 26 -80 40 -128 44c3 -47 16 -84 43 -115l-64 -108l-63 108c28 32 40 68 42 115c-48 -4 -89 -18 -128 -44l-33 62l34 60c41 -27 81 -41 127 -43c-6 50 -18 93 -41 131zM250 275l64 -101
c-27 -31 -40 -68 -43 -115c47 4 89 18 128 44l33 -62l-33 -60c-41 27 -82 41 -128 43c7 -52 19 -96 41 -131l-62 -37l-62 37c23 38 35 81 41 131c-46 -2 -86 -16 -127 -43l-34 60l33 62c39 -26 81 -40 128 -44c-2 47 -14 83 -42 115z" />
    <glyph glyph-name="periodcentered" unicode="&#xb7;" horiz-adv-x="278" 
d="M139 433c45 0 80 -36 80 -80c0 -45 -37 -80 -80 -80s-80 37 -80 80s35 80 80 80z" />
    <glyph glyph-name="paragraph" unicode="&#xb6;" horiz-adv-x="549" 
d="M508 697v-34h-11c-44 0 -61 -12 -66 -46c-2 -17 -4 -119 -4 -305c0 -90 2 -242 4 -456h-58l3 336c-20 -2 -37 -4 -51 -4c-160 0 -268 107 -268 248c0 142 113 260 286 260c32 0 60 -2 83 -2c25 0 52 1 82 3zM376 659c-58 -7 -79 -72 -79 -203c0 -144 24 -219 79 -230v433
z" />
    <glyph glyph-name="bullet" unicode="&#x2022;" horiz-adv-x="590" 
d="M150 372c0 80 65 144 145 144c79 0 144 -64 144 -144c0 -79 -65 -145 -145 -145s-144 65 -144 145z" />
    <glyph glyph-name="quotesinglbase" unicode="&#x201a;" horiz-adv-x="278" 
d="M135 123c42 -32 65 -53 65 -89c0 -42 -43 -115 -135 -186l-27 32c42 33 69 71 81 119c-32 20 -49 35 -49 54c0 17 14 29 36 47z" />
    <glyph glyph-name="quotedblbase" unicode="&#x201e;" horiz-adv-x="474" 
d="M135 123c42 -32 65 -53 65 -89c0 -42 -43 -115 -135 -186l-27 32c42 33 69 71 81 119c-32 20 -49 35 -49 54c0 17 14 29 36 47zM331 123c42 -32 66 -53 66 -89c0 -42 -44 -115 -136 -186l-26 32c42 33 69 71 81 119c-32 20 -49 35 -49 54c0 17 14 29 36 47z" />
    <glyph glyph-name="quotedblright" unicode="&#x201d;" horiz-adv-x="474" 
d="M143 712c42 -32 66 -53 66 -89c0 -42 -44 -115 -136 -186l-26 32c42 33 68 71 80 119c-32 20 -48 35 -48 54c0 17 14 29 36 47zM340 712c42 -32 65 -53 65 -89c0 -42 -43 -115 -135 -186l-27 32c48 38 70 77 81 119c-32 20 -49 35 -49 54c0 17 14 29 36 47z" />
    <glyph glyph-name="guillemotright" unicode="&#xbb;" horiz-adv-x="418" 
d="M240 426c44 -65 93 -126 146 -185c-50 -57 -99 -120 -146 -189l-37 22c33 62 61 116 85 165c-26 54 -54 110 -85 167zM89 421c34 -58 71 -118 113 -181c-38 -58 -76 -119 -114 -185l-39 19c24 59 47 115 68 166c-23 58 -45 113 -65 164z" />
    <glyph glyph-name="ellipsis" unicode="&#x2026;" horiz-adv-x="1000" 
d="M158 127l39 -29c20 -15 31 -28 31 -41c0 -17 -10 -29 -29 -43l-38 -28l-36 28c-19 14 -31 26 -31 43s12 27 29 41zM491 127l39 -29c20 -15 31 -28 31 -41c0 -17 -10 -29 -29 -43l-38 -28l-36 28c-19 14 -31 26 -31 43s12 27 29 41zM825 127l39 -29c20 -15 31 -28 31 -41
c0 -17 -10 -29 -29 -43l-38 -28l-36 28c-19 14 -31 26 -31 43s12 27 29 41z" />
    <glyph glyph-name="perthousand" unicode="&#x2030;" horiz-adv-x="1226" 
d="M612 713l38 -21c-157 -265 -297 -503 -419 -715l-38 19l398 683c-63 -38 -116 -59 -163 -59c-33 0 -68 10 -107 28c23 -31 36 -77 36 -131c0 -118 -65 -196 -157 -196c-88 0 -147 72 -147 189c0 120 64 196 156 196c22 0 44 -5 67 -13c61 -20 110 -33 153 -33
c47 0 111 17 183 53zM201 670c-50 0 -74 -46 -74 -142c0 -111 30 -171 82 -171c49 0 73 47 73 139c0 114 -29 174 -81 174zM490 175c0 120 64 196 157 196c88 0 147 -74 147 -182c0 -128 -64 -203 -157 -203c-88 0 -147 72 -147 189zM860 175c0 120 64 196 157 196
c88 0 147 -74 147 -182c0 -128 -64 -203 -157 -203c-88 0 -147 72 -147 189zM638 336c-50 0 -74 -47 -74 -143c0 -111 29 -171 81 -171c49 0 74 47 74 139c0 114 -29 175 -81 175zM1008 336c-50 0 -74 -47 -74 -143c0 -111 30 -171 82 -171c49 0 73 47 73 139
c0 114 -29 175 -81 175z" />
    <glyph glyph-name="questiondown" unicode="&#xbf;" horiz-adv-x="470" 
d="M327 713l34 -26c18 -14 26 -27 26 -42c0 -17 -8 -26 -24 -38l-36 -28l-35 26c-17 13 -26 25 -26 42s8 26 24 38zM309 504h38c-1 -19 -1 -38 -1 -57c0 -38 1 -74 4 -109c-130 -31 -200 -99 -200 -177c0 -64 50 -111 116 -111c62 0 96 46 122 46c19 0 34 -16 34 -38
c0 -41 -43 -73 -112 -73c-131 0 -226 88 -226 201c0 105 64 155 175 209c36 17 50 17 50 87v22z" />
    <glyph glyph-name="grave" unicode="`" 
d="M195 757l129 -198l-37 -12l-164 166z" />
    <glyph glyph-name="acute" unicode="&#xb4;" 
d="M307 757l73 -47l-163 -163l-37 13z" />
    <glyph glyph-name="circumflex" unicode="&#x2c6;" 
d="M236 719h30l133 -157l-30 -15l-119 99l-119 -99l-29 15z" />
    <glyph glyph-name="tilde" unicode="&#x2dc;" 
d="M411 707l26 -21c-32 -42 -66 -75 -109 -100c-69 5 -118 18 -150 18c-38 0 -68 -14 -94 -47l-24 23c33 43 70 76 115 100c70 -6 119 -19 151 -19c33 0 61 15 85 46z" />
    <glyph glyph-name="macron" unicode="&#xaf;" 
d="M123 663h253v-62h-253v62z" />
    <glyph glyph-name="breve" unicode="&#x2d8;" 
d="M147 700c19 -50 50 -71 103 -71s85 22 103 71l31 -10c-23 -84 -69 -126 -134 -126s-111 43 -134 126z" />
    <glyph glyph-name="dotaccent" unicode="&#x2d9;" 
d="M250 692c27 0 64 -35 64 -60s-37 -59 -64 -59s-64 35 -64 59s37 60 64 60z" />
    <glyph glyph-name="dieresis" unicode="&#xa8;" 
d="M146 689c25 0 61 -33 61 -57s-36 -57 -61 -57c-26 0 -61 33 -61 57c0 23 35 57 61 57zM354 689c25 0 62 -33 62 -57s-37 -57 -62 -57c-26 0 -61 33 -61 57c0 23 35 57 61 57z" />
    <glyph glyph-name="ring" unicode="&#x2da;" 
d="M250 775c66 0 119 -53 119 -119s-52 -118 -119 -118c-66 0 -118 52 -118 118s52 119 118 119zM250 724c-37 0 -67 -30 -67 -68c0 -37 30 -68 67 -68s68 31 68 68c0 38 -30 68 -68 68z" />
    <glyph glyph-name="cedilla" unicode="&#xb8;" 
d="M281 0h37l-48 -59c44 -11 66 -35 66 -64c0 -42 -43 -80 -123 -99l-15 29c44 10 66 31 66 60c0 24 -20 40 -59 47z" />
    <glyph glyph-name="hungarumlaut" unicode="&#x2dd;" 
d="M232 757l68 -33l-111 -177l-37 13zM371 757l65 -42l-136 -168l-37 13z" />
    <glyph glyph-name="ogonek" unicode="&#x2db;" 
d="M287 21h18c-58 -55 -85 -107 -85 -141c0 -29 17 -46 40 -46c19 0 36 12 52 36l27 -19c-28 -46 -61 -69 -101 -69c-48 0 -81 34 -81 80c0 50 44 103 130 159z" />
    <glyph glyph-name="caron" unicode="&#x2c7;" 
d="M131 718l119 -99l120 99l29 -15l-134 -156h-30l-134 157z" />
    <glyph glyph-name="emdash" unicode="&#x2014;" horiz-adv-x="1000" 
d="M17 272h983l-17 -53h-983z" />
    <glyph glyph-name="AE" unicode="&#xc6;" horiz-adv-x="1051" 
d="M397 697c86 -5 176 -7 270 -7c96 0 192 3 289 7c1 -49 4 -100 9 -152l-34 -3c-6 89 -51 100 -175 100c-33 0 -73 -1 -122 -2c-1 -111 -3 -195 -4 -254h15c53 0 96 -1 130 -1c83 0 115 8 118 62l31 -3c-5 -43 -7 -77 -7 -104c0 -17 1 -44 3 -78l-32 -1v4
c0 65 -37 71 -136 71h-122c0 -46 -1 -88 -1 -127c0 -56 1 -106 2 -149c33 -4 74 -6 124 -6c133 0 186 6 223 115l35 -12c-19 -53 -34 -105 -45 -157c-97 3 -192 6 -286 6c-66 0 -141 -2 -227 -7v34c9 -1 17 -2 24 -2c58 0 60 37 60 130v34c0 19 0 41 1 65
c-69 1 -111 2 -125 2c-38 0 -81 0 -129 -1c-70 -113 -113 -174 -113 -195c0 -27 18 -33 59 -33h10v-33c-55 4 -95 6 -122 6c-28 0 -68 -2 -119 -6v32h8c63 0 90 49 143 125c208 301 327 454 327 479c0 23 -19 28 -58 28h-24v33zM545 645l-225 -336c65 -1 103 -1 115 -1
c27 0 61 0 104 1c1 88 3 200 6 336z" />
    <glyph glyph-name="ordfeminine" unicode="&#xaa;" horiz-adv-x="361" 
d="M227 526c-95 -24 -140 -32 -140 -77c0 -29 21 -51 56 -51c22 0 49 11 83 32zM352 411l10 -22c-39 -27 -69 -38 -87 -38c-30 0 -46 16 -48 51c-47 -30 -82 -47 -113 -47c-50 0 -87 41 -87 90c0 74 61 76 202 108c1 21 1 37 1 47c0 47 -20 69 -63 69c-42 0 -68 -15 -68 -40
c0 -3 1 -6 1 -9c0 -15 -19 -25 -38 -25c-17 0 -25 5 -25 17c0 30 72 95 151 95c68 0 104 -35 104 -103c0 -55 -7 -112 -7 -170c0 -26 4 -38 24 -38c10 0 23 6 43 15z" />
    <glyph glyph-name="Lslash" unicode="&#x141;" horiz-adv-x="582" 
d="M57 698c55 -3 96 -5 123 -5c34 0 75 1 123 4v-34c-5 0 -10 1 -15 1c-61 0 -66 -41 -66 -146v-121c37 22 90 56 159 103l1 -63c-58 -34 -112 -65 -160 -95l1 -282c37 -2 70 -3 99 -3c139 0 192 3 229 118l35 -11c-21 -59 -36 -113 -47 -164c-96 3 -189 5 -277 5
c-63 0 -135 -2 -216 -6v33c6 0 11 -1 15 -1c76 0 65 61 68 233v32c-39 -23 -79 -48 -120 -73v61c36 20 77 43 122 71v156c0 115 -5 153 -72 153h-2v34z" />
    <glyph glyph-name="Oslash" unicode="&#xd8;" horiz-adv-x="802" 
d="M638 785l41 -26c-22 -33 -46 -69 -71 -108c96 -73 148 -179 148 -300c0 -108 -45 -209 -122 -278c-62 -55 -150 -89 -234 -89c-71 0 -129 15 -181 49c-25 -40 -48 -79 -70 -117l-39 24c26 39 52 78 76 116c-88 65 -140 174 -140 294c0 204 156 363 364 363
c57 0 109 -12 162 -38c25 39 46 76 66 110zM567 584c-101 -149 -204 -311 -313 -488c49 -41 103 -61 162 -61c132 0 239 109 239 300c0 102 -30 187 -88 249zM537 612c-45 34 -92 51 -146 51c-142 0 -244 -109 -244 -292c0 -100 26 -181 79 -243c92 133 192 297 311 484z
" />
    <glyph glyph-name="OE" unicode="&#x152;" horiz-adv-x="1086" 
d="M999 698v-19c0 -46 3 -91 10 -135l-35 -4c-9 81 -40 89 -121 96c-57 5 -154 5 -291 7c93 -66 146 -154 157 -264h17c6 0 27 -1 63 -1c107 0 147 0 148 65l32 -2c-4 -38 -7 -72 -7 -99c0 -19 2 -46 4 -80l-32 -2v2c0 63 -41 69 -146 69h-78c-3 -122 -54 -215 -150 -280
c27 0 81 1 162 1h51c83 0 140 1 169 19c26 15 45 46 60 92l35 -11c-18 -50 -33 -101 -43 -154c-99 5 -205 7 -316 7c-143 0 -235 -19 -286 -19c-215 0 -361 155 -361 359c0 201 148 361 370 361c47 0 163 -17 355 -17c92 0 170 1 233 9zM619 315c0 216 -89 342 -233 342
c-138 0 -239 -109 -239 -292c0 -195 113 -326 263 -326c123 0 209 105 209 276z" />
    <glyph glyph-name="ordmasculine" unicode="&#xba;" horiz-adv-x="413" 
d="M211 706c106 0 178 -76 178 -168c0 -105 -81 -186 -185 -186c-106 0 -179 75 -179 173c0 103 86 181 186 181zM201 670c-62 0 -109 -44 -109 -123c0 -98 51 -162 120 -162c65 0 112 47 112 133c0 90 -52 152 -123 152z" />
    <glyph glyph-name="ae" unicode="&#xe6;" horiz-adv-x="756" 
d="M343 84c-81 -59 -141 -92 -189 -92c-68 0 -119 58 -119 128c0 106 84 108 276 155c1 30 2 52 2 66c0 68 -27 99 -88 99c-57 0 -92 -21 -92 -55v-10c0 -26 -21 -40 -54 -40c-19 0 -30 8 -30 24c0 44 102 135 204 135c57 0 96 -25 114 -72c36 43 84 71 158 71
c113 0 186 -78 196 -220h-238c-33 0 -65 -1 -95 -4v-18c0 -129 63 -200 169 -200c50 0 96 17 145 49l19 -31c-68 -56 -136 -83 -199 -83c-76 0 -143 37 -179 98zM307 100l2 136c-130 -34 -194 -46 -194 -108c0 -39 30 -73 78 -73c32 0 68 16 114 45zM391 309
c111 0 191 3 240 15c-20 82 -62 124 -116 124c-60 0 -110 -50 -124 -139z" />
    <glyph glyph-name="dotlessi" unicode="&#x131;" horiz-adv-x="297" 
d="M193 499c-4 -127 -8 -236 -8 -329v-52c0 -64 4 -86 53 -86c5 0 10 1 15 1v-33c-46 3 -83 5 -110 5c-25 0 -62 -2 -112 -5v34h12c66 0 60 34 61 146l2 121c0 24 1 44 1 60c0 46 -5 65 -35 65c-5 0 -15 -1 -28 -3l-5 31c52 10 103 25 154 45z" />
    <glyph glyph-name="lslash" unicode="&#x142;" horiz-adv-x="306" 
d="M191 755c-4 -124 -4 -213 -4 -268v-49l-1 -23c32 19 70 42 113 71v-51c-41 -24 -79 -46 -113 -66v-250c0 -61 4 -85 59 -85h12v-34c-55 4 -94 5 -115 5c-23 0 -59 -1 -108 -4v33c6 0 11 -1 16 -1c63 0 56 39 57 158l1 141c-33 -20 -66 -40 -101 -62v50
c32 18 65 39 101 61l1 177v86c0 26 -13 40 -37 40c-8 0 -17 -2 -28 -4l-7 32c53 9 104 23 154 43z" />
    <glyph glyph-name="oslash" unicode="&#xf8;" horiz-adv-x="551" 
d="M444 556l30 -18l-55 -88c64 -46 100 -118 100 -197c0 -150 -109 -266 -247 -266c-48 0 -88 9 -124 33l-54 -85l-28 18l53 87c-54 46 -86 117 -86 195c0 145 112 258 255 258c36 0 68 -8 101 -24zM357 416c-27 20 -56 29 -89 29c-87 0 -149 -64 -149 -186
c0 -59 14 -112 41 -152zM384 391l-201 -312c22 -29 58 -46 100 -46c89 0 153 67 153 191c0 62 -19 123 -52 167z" />
    <glyph glyph-name="oe" unicode="&#x153;" horiz-adv-x="877" 
d="M464 88c-50 -66 -118 -101 -194 -101c-141 0 -237 107 -237 248c0 146 116 258 247 258c84 0 146 -33 194 -102c42 66 107 102 172 102c113 0 186 -78 196 -220h-238c-33 0 -65 -1 -95 -4v-18c0 -129 63 -200 169 -200c50 0 96 17 145 49l18 -31
c-68 -56 -136 -83 -198 -83c-74 0 -136 35 -179 102zM123 258c0 -131 67 -223 159 -223c87 0 150 67 150 189c0 129 -68 218 -164 218c-85 0 -145 -63 -145 -184zM512 309c111 0 191 3 240 15c-20 82 -62 124 -116 124c-60 0 -110 -50 -124 -139z" />
    <glyph glyph-name="germandbls" unicode="&#xdf;" horiz-adv-x="586" 
d="M34 33c7 -1 13 -2 19 -2c47 0 53 38 53 133c0 30 -1 67 -1 110v204c0 185 81 278 221 278c100 0 169 -67 169 -147c0 -45 -23 -82 -66 -126c-30 -31 -52 -52 -52 -74c0 -17 16 -33 42 -58c71 -66 132 -104 132 -187c0 -99 -86 -173 -176 -173c-62 0 -98 29 -98 72
c0 19 13 35 36 35c37 0 34 -59 90 -59c46 0 79 35 79 84c0 60 -52 98 -120 161c-37 34 -56 66 -56 90c0 34 24 55 54 88c41 46 63 89 63 131c0 70 -45 119 -118 119c-82 0 -119 -64 -119 -191v-309c0 -34 -1 -62 -1 -85c0 -69 5 -95 40 -95c3 0 6 1 10 1v-33
c-44 3 -79 5 -105 5c-18 0 -50 -1 -96 -5v33z" />
    <glyph glyph-name="Aacute" unicode="&#xc1;" horiz-adv-x="722" 
d="M319 697h84c106 -324 180 -522 210 -595c20 -48 29 -68 74 -68h10v-34c-59 3 -99 4 -123 4c-31 0 -74 -1 -129 -4v34h9c45 0 60 8 60 38c0 11 -3 24 -8 40l-48 149c-59 1 -101 2 -126 2c-19 0 -61 0 -124 -1c-38 -97 -60 -158 -60 -185c0 -33 16 -43 58 -43h13v-34
c-54 3 -94 4 -122 4c-21 0 -59 -1 -112 -4v34c46 1 70 16 90 57c14 29 103 230 244 606zM341 605l-112 -292c43 -1 77 -2 102 -2c29 0 66 1 110 2zM418 977l73 -47l-163 -163l-37 13z" />
    <glyph glyph-name="Acircumflex" unicode="&#xc2;" horiz-adv-x="722" 
d="M319 697h84c106 -324 180 -522 210 -595c20 -48 29 -68 74 -68h10v-34c-59 3 -99 4 -123 4c-31 0 -74 -1 -129 -4v34h9c45 0 60 8 60 38c0 11 -3 24 -8 40l-48 149c-59 1 -101 2 -126 2c-19 0 -61 0 -124 -1c-38 -97 -60 -158 -60 -185c0 -33 16 -43 58 -43h13v-34
c-54 3 -94 4 -122 4c-21 0 -59 -1 -112 -4v34c46 1 70 16 90 57c14 29 103 230 244 606zM341 605l-112 -292c43 -1 77 -2 102 -2c29 0 66 1 110 2zM347 939h30l133 -157l-30 -15l-119 99l-119 -99l-29 15z" />
    <glyph glyph-name="Adieresis" unicode="&#xc4;" horiz-adv-x="722" 
d="M319 697h84c106 -324 180 -522 210 -595c20 -48 29 -68 74 -68h10v-34c-59 3 -99 4 -123 4c-31 0 -74 -1 -129 -4v34h9c45 0 60 8 60 38c0 11 -3 24 -8 40l-48 149c-59 1 -101 2 -126 2c-19 0 -61 0 -124 -1c-38 -97 -60 -158 -60 -185c0 -33 16 -43 58 -43h13v-34
c-54 3 -94 4 -122 4c-21 0 -59 -1 -112 -4v34c46 1 70 16 90 57c14 29 103 230 244 606zM341 605l-112 -292c43 -1 77 -2 102 -2c29 0 66 1 110 2zM257 909c25 0 61 -33 61 -57s-36 -57 -61 -57c-26 0 -61 33 -61 57c0 23 35 57 61 57zM465 909c25 0 62 -33 62 -57
s-37 -57 -62 -57c-26 0 -61 33 -61 57c0 23 35 57 61 57z" />
    <glyph glyph-name="Agrave" unicode="&#xc0;" horiz-adv-x="722" 
d="M319 697h84c106 -324 180 -522 210 -595c20 -48 29 -68 74 -68h10v-34c-59 3 -99 4 -123 4c-31 0 -74 -1 -129 -4v34h9c45 0 60 8 60 38c0 11 -3 24 -8 40l-48 149c-59 1 -101 2 -126 2c-19 0 -61 0 -124 -1c-38 -97 -60 -158 -60 -185c0 -33 16 -43 58 -43h13v-34
c-54 3 -94 4 -122 4c-21 0 -59 -1 -112 -4v34c46 1 70 16 90 57c14 29 103 230 244 606zM341 605l-112 -292c43 -1 77 -2 102 -2c29 0 66 1 110 2zM306 977l129 -198l-37 -12l-164 166z" />
    <glyph glyph-name="Aring" unicode="&#xc5;" horiz-adv-x="722" 
d="M361 963c65 0 117 -51 117 -116c0 -64 -52 -117 -117 -117s-117 53 -117 117c0 65 52 116 117 116zM361 913c-35 0 -65 -30 -65 -66c0 -35 30 -66 65 -66s66 31 66 66c0 36 -30 66 -66 66zM319 697h84c106 -324 180 -522 210 -595c20 -48 29 -68 74 -68h10v-34
c-59 3 -99 4 -123 4c-31 0 -74 -1 -129 -4v34h9c45 0 60 8 60 38c0 11 -3 24 -8 40l-48 149c-59 1 -101 2 -126 2c-19 0 -61 0 -124 -1c-38 -97 -60 -158 -60 -185c0 -33 16 -43 58 -43h13v-34c-54 3 -94 4 -122 4c-21 0 -59 -1 -112 -4v34c46 1 70 16 90 57
c14 29 103 230 244 606zM341 605l-112 -292c43 -1 77 -2 102 -2c29 0 66 1 110 2z" />
    <glyph glyph-name="Atilde" unicode="&#xc3;" horiz-adv-x="722" 
d="M319 697h84c106 -324 180 -522 210 -595c20 -48 29 -68 74 -68h10v-34c-59 3 -99 4 -123 4c-31 0 -74 -1 -129 -4v34h9c45 0 60 8 60 38c0 11 -3 24 -8 40l-48 149c-59 1 -101 2 -126 2c-19 0 -61 0 -124 -1c-38 -97 -60 -158 -60 -185c0 -33 16 -43 58 -43h13v-34
c-54 3 -94 4 -122 4c-21 0 -59 -1 -112 -4v34c46 1 70 16 90 57c14 29 103 230 244 606zM341 605l-112 -292c43 -1 77 -2 102 -2c29 0 66 1 110 2zM522 927l26 -21c-32 -42 -66 -75 -109 -100c-69 5 -118 18 -150 18c-38 0 -68 -14 -94 -47l-24 23c33 43 70 76 115 100
c70 -6 119 -19 151 -19c33 0 61 15 85 46z" />
    <glyph glyph-name="Ccedilla" unicode="&#xc7;" horiz-adv-x="707" 
d="M641 675v-17c0 -50 4 -100 10 -148l-36 -6c-13 94 -93 149 -214 149c-160 0 -254 -101 -254 -286c0 -200 116 -326 273 -326c101 0 177 47 219 138l33 -16c-21 -43 -38 -87 -51 -131c-73 -33 -147 -48 -217 -48c-216 0 -363 146 -363 364c0 217 158 364 380 364
c65 0 139 -12 220 -37zM398 0h37l-48 -59c44 -11 66 -35 66 -64c0 -42 -43 -80 -123 -99l-15 29c44 10 66 31 66 60c0 24 -20 40 -59 47z" />
    <glyph glyph-name="Eacute" unicode="&#xc9;" horiz-adv-x="634" 
d="M48 697c114 -4 204 -6 269 -6c72 0 146 2 222 6c1 -49 4 -100 9 -152l-33 -3c-6 89 -51 100 -175 100c-33 0 -74 -1 -122 -2c-1 -101 -4 -185 -5 -254h15c53 0 96 -1 130 -1c83 0 115 8 118 62l31 -3c-5 -43 -7 -77 -7 -104c0 -17 2 -44 4 -78l-32 -1v4
c0 65 -37 71 -137 71h-122c0 -46 -1 -88 -1 -127c0 -56 1 -106 2 -149c33 -4 74 -6 124 -6c133 0 186 6 223 115l35 -12c-19 -53 -34 -105 -45 -157c-103 4 -191 6 -262 6c-78 0 -162 -3 -252 -6v32c6 -1 11 -1 16 -1c76 0 64 67 67 254l2 133c1 86 1 143 1 172
c0 55 -17 74 -71 74h-4v33zM374 977l73 -47l-163 -163l-37 13z" />
    <glyph glyph-name="Ecircumflex" unicode="&#xca;" horiz-adv-x="634" 
d="M48 697c114 -4 204 -6 269 -6c72 0 146 2 222 6c1 -49 4 -100 9 -152l-33 -3c-6 89 -51 100 -175 100c-33 0 -74 -1 -122 -2c-1 -101 -4 -185 -5 -254h15c53 0 96 -1 130 -1c83 0 115 8 118 62l31 -3c-5 -43 -7 -77 -7 -104c0 -17 2 -44 4 -78l-32 -1v4
c0 65 -37 71 -137 71h-122c0 -46 -1 -88 -1 -127c0 -56 1 -106 2 -149c33 -4 74 -6 124 -6c133 0 186 6 223 115l35 -12c-19 -53 -34 -105 -45 -157c-103 4 -191 6 -262 6c-78 0 -162 -3 -252 -6v32c6 -1 11 -1 16 -1c76 0 64 67 67 254l2 133c1 86 1 143 1 172
c0 55 -17 74 -71 74h-4v33zM303 939h30l133 -157l-30 -15l-119 99l-119 -99l-29 15z" />
    <glyph glyph-name="Edieresis" unicode="&#xcb;" horiz-adv-x="634" 
d="M48 697c114 -4 204 -6 269 -6c72 0 146 2 222 6c1 -49 4 -100 9 -152l-33 -3c-6 89 -51 100 -175 100c-33 0 -74 -1 -122 -2c-1 -101 -4 -185 -5 -254h15c53 0 96 -1 130 -1c83 0 115 8 118 62l31 -3c-5 -43 -7 -77 -7 -104c0 -17 2 -44 4 -78l-32 -1v4
c0 65 -37 71 -137 71h-122c0 -46 -1 -88 -1 -127c0 -56 1 -106 2 -149c33 -4 74 -6 124 -6c133 0 186 6 223 115l35 -12c-19 -53 -34 -105 -45 -157c-103 4 -191 6 -262 6c-78 0 -162 -3 -252 -6v32c6 -1 11 -1 16 -1c76 0 64 67 67 254l2 133c1 86 1 143 1 172
c0 55 -17 74 -71 74h-4v33zM213 909c25 0 61 -33 61 -57s-36 -57 -61 -57c-26 0 -61 33 -61 57c0 23 35 57 61 57zM421 909c25 0 62 -33 62 -57s-37 -57 -62 -57c-26 0 -61 33 -61 57c0 23 35 57 61 57z" />
    <glyph glyph-name="Egrave" unicode="&#xc8;" horiz-adv-x="634" 
d="M48 697c114 -4 204 -6 269 -6c72 0 146 2 222 6c1 -49 4 -100 9 -152l-33 -3c-6 89 -51 100 -175 100c-33 0 -74 -1 -122 -2c-1 -101 -4 -185 -5 -254h15c53 0 96 -1 130 -1c83 0 115 8 118 62l31 -3c-5 -43 -7 -77 -7 -104c0 -17 2 -44 4 -78l-32 -1v4
c0 65 -37 71 -137 71h-122c0 -46 -1 -88 -1 -127c0 -56 1 -106 2 -149c33 -4 74 -6 124 -6c133 0 186 6 223 115l35 -12c-19 -53 -34 -105 -45 -157c-103 4 -191 6 -262 6c-78 0 -162 -3 -252 -6v32c6 -1 11 -1 16 -1c76 0 64 67 67 254l2 133c1 86 1 143 1 172
c0 55 -17 74 -71 74h-4v33zM262 977l129 -198l-37 -12l-164 166z" />
    <glyph glyph-name="Eth" unicode="&#xd0;" horiz-adv-x="787" 
d="M221 59c47 -10 93 -15 139 -15c186 0 285 106 285 290c0 197 -109 318 -298 318c-38 0 -79 -3 -121 -9c-2 -88 -3 -176 -4 -264h93c31 0 63 1 95 1v-50c-64 1 -101 1 -113 1h-75c-1 -80 -1 -126 -1 -139v-133zM46 0v34c7 -1 13 -1 18 -1c61 0 67 42 67 154v144h-122v49
c21 0 41 -1 60 -1h62v37c0 51 1 93 1 127c0 86 -8 120 -66 120h-9v34c55 -3 90 -4 106 -4c95 0 160 8 196 8c249 0 391 -137 391 -343c0 -210 -143 -362 -385 -362c-56 0 -125 8 -207 8c-22 0 -59 -1 -112 -4z" />
    <glyph glyph-name="Euro" unicode="&#x20ac;" horiz-adv-x="556" 
d="M542 163c-16 -42 -29 -86 -38 -129c-54 -33 -99 -48 -151 -48c-141 0 -243 113 -265 288h-6c-16 0 -36 -1 -68 -2l12 36c34 -1 42 -1 51 -1h8c-1 13 -1 26 -1 39c0 21 1 41 3 60h-5c-16 0 -36 -1 -68 -2l12 36c32 -1 42 -1 51 -1h15c29 162 134 267 274 267
c48 0 93 -12 153 -36v-17c0 -45 3 -94 7 -142l-26 -5c-10 93 -59 147 -149 147c-93 0 -157 -73 -174 -214h139c13 0 83 0 130 1l-12 -36c-56 1 -132 2 -192 2h-68c-1 -13 -1 -27 -1 -41c0 -20 0 -40 2 -58h141c13 0 44 0 91 1l-12 -36c-56 1 -93 2 -153 2h-63
c22 -148 97 -235 186 -235c75 0 121 50 152 140z" />
    <glyph glyph-name="Iacute" unicode="&#xcd;" horiz-adv-x="340" 
d="M37 697c52 -3 97 -4 134 -4c31 0 75 1 132 4v-34h-8c-41 0 -61 -8 -70 -32c-6 -17 -7 -56 -7 -118v-340c0 -59 1 -97 11 -116c9 -17 31 -23 69 -23h10v-34c-65 3 -111 4 -137 4c-32 0 -79 -1 -139 -4v34h10c38 0 60 6 69 23c11 22 12 71 12 152v268c0 83 -1 134 -8 154
c-9 25 -29 32 -69 32h-9v34zM227 977l73 -47l-163 -163l-37 13z" />
    <glyph glyph-name="Icircumflex" unicode="&#xce;" horiz-adv-x="340" 
d="M37 697c52 -3 97 -4 134 -4c31 0 75 1 132 4v-34h-8c-41 0 -61 -8 -70 -32c-6 -17 -7 -56 -7 -118v-340c0 -59 1 -97 11 -116c9 -17 31 -23 69 -23h10v-34c-65 3 -111 4 -137 4c-32 0 -79 -1 -139 -4v34h10c38 0 60 6 69 23c11 22 12 71 12 152v268c0 83 -1 134 -8 154
c-9 25 -29 32 -69 32h-9v34zM156 939h30l133 -157l-30 -15l-119 99l-119 -99l-29 15z" />
    <glyph glyph-name="Idieresis" unicode="&#xcf;" horiz-adv-x="340" 
d="M37 697c52 -3 97 -4 134 -4c31 0 75 1 132 4v-34h-8c-41 0 -61 -8 -70 -32c-6 -17 -7 -56 -7 -118v-340c0 -59 1 -97 11 -116c9 -17 31 -23 69 -23h10v-34c-65 3 -111 4 -137 4c-32 0 -79 -1 -139 -4v34h10c38 0 60 6 69 23c11 22 12 71 12 152v268c0 83 -1 134 -8 154
c-9 25 -29 32 -69 32h-9v34zM66 909c25 0 61 -33 61 -57s-36 -57 -61 -57c-26 0 -61 33 -61 57c0 23 35 57 61 57zM274 909c25 0 62 -33 62 -57s-37 -57 -62 -57c-26 0 -61 33 -61 57c0 23 35 57 61 57z" />
    <glyph glyph-name="Igrave" unicode="&#xcc;" horiz-adv-x="340" 
d="M37 697c52 -3 97 -4 134 -4c31 0 75 1 132 4v-34h-8c-41 0 -61 -8 -70 -32c-6 -17 -7 -56 -7 -118v-340c0 -59 1 -97 11 -116c9 -17 31 -23 69 -23h10v-34c-65 3 -111 4 -137 4c-32 0 -79 -1 -139 -4v34h10c38 0 60 6 69 23c11 22 12 71 12 152v268c0 83 -1 134 -8 154
c-9 25 -29 32 -69 32h-9v34zM115 977l129 -198l-37 -12l-164 166z" />
    <glyph glyph-name="Ntilde" unicode="&#xd1;" horiz-adv-x="808" 
d="M30 697c34 -3 63 -4 87 -4c18 0 45 1 82 4c10 -24 26 -47 46 -71l403 -477c-5 290 -5 448 -12 474c-8 31 -26 40 -69 40h-15v34c44 -2 82 -4 115 -4s72 2 116 4v-34c-6 1 -11 1 -16 1c-76 0 -64 -67 -67 -254l-2 -130c-1 -54 -1 -102 -1 -143c0 -64 1 -113 6 -145h-55
c-8 21 -31 47 -63 84l-419 493c2 -303 3 -468 10 -495c8 -31 26 -40 68 -40h15v-34c-46 2 -85 4 -115 4c-27 0 -65 -1 -114 -4v34c6 -1 11 -1 16 -1c76 0 64 66 67 253l2 130c1 82 1 140 1 173c0 55 -17 74 -73 74h-13v34zM565 927l26 -21c-32 -42 -66 -75 -109 -100
c-69 5 -118 18 -150 18c-38 0 -68 -14 -94 -47l-24 23c33 43 70 76 115 100c70 -6 119 -19 151 -19c33 0 61 15 85 46z" />
    <glyph glyph-name="Oacute" unicode="&#xd3;" horiz-adv-x="802" 
d="M401 713c97 0 174 -27 238 -87c75 -71 117 -168 117 -275c0 -109 -45 -209 -122 -278c-62 -55 -150 -89 -234 -89c-105 0 -193 39 -260 114c-61 69 -94 157 -94 252c0 103 40 197 113 266c67 63 153 97 242 97zM648 334c0 195 -114 324 -258 324
c-137 0 -236 -106 -236 -287c0 -203 117 -332 257 -332c136 0 237 108 237 295zM458 977l73 -47l-163 -163l-37 13z" />
    <glyph glyph-name="Ocircumflex" unicode="&#xd4;" horiz-adv-x="802" 
d="M401 713c97 0 174 -27 238 -87c75 -71 117 -168 117 -275c0 -109 -45 -209 -122 -278c-62 -55 -150 -89 -234 -89c-105 0 -193 39 -260 114c-61 69 -94 157 -94 252c0 103 40 197 113 266c67 63 153 97 242 97zM648 334c0 195 -114 324 -258 324
c-137 0 -236 -106 -236 -287c0 -203 117 -332 257 -332c136 0 237 108 237 295zM387 939h30l133 -157l-30 -15l-119 99l-119 -99l-29 15z" />
    <glyph glyph-name="Odieresis" unicode="&#xd6;" horiz-adv-x="802" 
d="M401 713c97 0 174 -27 238 -87c75 -71 117 -168 117 -275c0 -109 -45 -209 -122 -278c-62 -55 -150 -89 -234 -89c-105 0 -193 39 -260 114c-61 69 -94 157 -94 252c0 103 40 197 113 266c67 63 153 97 242 97zM648 334c0 195 -114 324 -258 324
c-137 0 -236 -106 -236 -287c0 -203 117 -332 257 -332c136 0 237 108 237 295zM297 909c25 0 61 -33 61 -57s-36 -57 -61 -57c-26 0 -61 33 -61 57c0 23 35 57 61 57zM505 909c25 0 62 -33 62 -57s-37 -57 -62 -57c-26 0 -61 33 -61 57c0 23 35 57 61 57z" />
    <glyph glyph-name="Ograve" unicode="&#xd2;" horiz-adv-x="802" 
d="M401 713c97 0 174 -27 238 -87c75 -71 117 -168 117 -275c0 -109 -45 -209 -122 -278c-62 -55 -150 -89 -234 -89c-105 0 -193 39 -260 114c-61 69 -94 157 -94 252c0 103 40 197 113 266c67 63 153 97 242 97zM648 334c0 195 -114 324 -258 324
c-137 0 -236 -106 -236 -287c0 -203 117 -332 257 -332c136 0 237 108 237 295zM346 977l129 -198l-37 -12l-164 166z" />
    <glyph glyph-name="Otilde" unicode="&#xd5;" horiz-adv-x="802" 
d="M401 713c97 0 174 -27 238 -87c75 -71 117 -168 117 -275c0 -109 -45 -209 -122 -278c-62 -55 -150 -89 -234 -89c-105 0 -193 39 -260 114c-61 69 -94 157 -94 252c0 103 40 197 113 266c67 63 153 97 242 97zM648 334c0 195 -114 324 -258 324
c-137 0 -236 -106 -236 -287c0 -203 117 -332 257 -332c136 0 237 108 237 295zM562 927l26 -21c-32 -42 -66 -75 -109 -100c-69 5 -118 18 -150 18c-38 0 -68 -14 -94 -47l-24 23c33 43 70 76 115 100c70 -6 119 -19 151 -19c33 0 61 15 85 46z" />
    <glyph glyph-name="Scaron" unicode="&#x160;" horiz-adv-x="541" 
d="M459 676c0 -46 5 -93 17 -141l-38 -7c-11 80 -61 119 -155 119c-88 0 -145 -48 -145 -112c0 -90 87 -109 207 -150c103 -36 153 -90 153 -176c0 -125 -101 -218 -269 -218c-62 0 -120 10 -180 31c1 11 1 21 1 31c0 45 -5 90 -16 136l44 10c11 -106 64 -154 175 -154
c97 0 163 54 163 130c0 90 -67 101 -173 136c-120 39 -183 92 -183 195c0 110 98 196 233 196c62 0 114 -12 166 -26zM152 938l119 -99l120 99l29 -15l-134 -156h-30l-134 157z" />
    <glyph glyph-name="Thorn" unicode="&#xde;" horiz-adv-x="580" 
d="M48 698c52 -3 92 -6 123 -6c24 0 64 2 120 5v-34h-10c-54 0 -72 -16 -73 -68l-1 -26c49 3 87 4 112 4c154 0 241 -78 241 -192c0 -133 -92 -219 -268 -219c-17 0 -46 3 -86 7v-33c0 -83 9 -102 82 -102h12v-34c-54 3 -100 4 -140 4c-17 0 -58 -1 -123 -5v33
c7 -1 13 -1 19 -1c61 0 66 40 66 146v108l1 133v172c0 55 -17 74 -71 74h-4v34zM206 213c19 -3 43 -5 71 -5c123 0 186 56 186 160c0 93 -65 155 -173 155c-27 0 -54 -3 -81 -8c-2 -128 -3 -229 -3 -302z" />
    <glyph glyph-name="Uacute" unicode="&#xda;" horiz-adv-x="787" 
d="M292 697v-34c-6 0 -11 1 -16 1c-61 0 -66 -40 -66 -146v-178c0 -79 2 -138 21 -179c31 -69 94 -108 183 -108c66 0 115 19 150 58c45 50 48 116 48 213c0 179 -5 280 -10 299c-9 31 -26 40 -68 40h-7v34c43 -2 80 -4 113 -4s70 2 113 4v-34h-6c-37 0 -55 -8 -64 -32
c-8 -21 -10 -110 -10 -269v-49c0 -73 -2 -136 -25 -190c-36 -85 -129 -139 -252 -139c-85 0 -157 26 -206 72c-63 58 -75 129 -75 229c0 74 2 153 2 240v15c0 90 -2 123 -68 123h-9v34c53 -3 94 -4 123 -4c36 0 79 1 129 4zM466 977l73 -47l-163 -163l-37 13z" />
    <glyph glyph-name="Ucircumflex" unicode="&#xdb;" horiz-adv-x="787" 
d="M292 697v-34c-6 0 -11 1 -16 1c-61 0 -66 -40 -66 -146v-178c0 -79 2 -138 21 -179c31 -69 94 -108 183 -108c66 0 115 19 150 58c45 50 48 116 48 213c0 179 -5 280 -10 299c-9 31 -26 40 -68 40h-7v34c43 -2 80 -4 113 -4s70 2 113 4v-34h-6c-37 0 -55 -8 -64 -32
c-8 -21 -10 -110 -10 -269v-49c0 -73 -2 -136 -25 -190c-36 -85 -129 -139 -252 -139c-85 0 -157 26 -206 72c-63 58 -75 129 -75 229c0 74 2 153 2 240v15c0 90 -2 123 -68 123h-9v34c53 -3 94 -4 123 -4c36 0 79 1 129 4zM395 939h30l133 -157l-30 -15l-119 99l-119 -99
l-29 15z" />
    <glyph glyph-name="Udieresis" unicode="&#xdc;" horiz-adv-x="787" 
d="M292 697v-34c-6 0 -11 1 -16 1c-61 0 -66 -40 -66 -146v-178c0 -79 2 -138 21 -179c31 -69 94 -108 183 -108c66 0 115 19 150 58c45 50 48 116 48 213c0 179 -5 280 -10 299c-9 31 -26 40 -68 40h-7v34c43 -2 80 -4 113 -4s70 2 113 4v-34h-6c-37 0 -55 -8 -64 -32
c-8 -21 -10 -110 -10 -269v-49c0 -73 -2 -136 -25 -190c-36 -85 -129 -139 -252 -139c-85 0 -157 26 -206 72c-63 58 -75 129 -75 229c0 74 2 153 2 240v15c0 90 -2 123 -68 123h-9v34c53 -3 94 -4 123 -4c36 0 79 1 129 4zM305 909c25 0 61 -33 61 -57s-36 -57 -61 -57
c-26 0 -61 33 -61 57c0 23 35 57 61 57zM513 909c25 0 62 -33 62 -57s-37 -57 -62 -57c-26 0 -61 33 -61 57c0 23 35 57 61 57z" />
    <glyph glyph-name="Ugrave" unicode="&#xd9;" horiz-adv-x="787" 
d="M292 697v-34c-6 0 -11 1 -16 1c-61 0 -66 -40 -66 -146v-178c0 -79 2 -138 21 -179c31 -69 94 -108 183 -108c66 0 115 19 150 58c45 50 48 116 48 213c0 179 -5 280 -10 299c-9 31 -26 40 -68 40h-7v34c43 -2 80 -4 113 -4s70 2 113 4v-34h-6c-37 0 -55 -8 -64 -32
c-8 -21 -10 -110 -10 -269v-49c0 -73 -2 -136 -25 -190c-36 -85 -129 -139 -252 -139c-85 0 -157 26 -206 72c-63 58 -75 129 -75 229c0 74 2 153 2 240v15c0 90 -2 123 -68 123h-9v34c53 -3 94 -4 123 -4c36 0 79 1 129 4zM354 977l129 -198l-37 -12l-164 166z" />
    <glyph glyph-name="Yacute" unicode="&#xdd;" horiz-adv-x="659" 
d="M9 697c55 -3 97 -4 124 -4c30 0 70 1 120 3v-33h-7c-36 0 -55 -8 -55 -22s14 -35 34 -70l118 -210c106 170 160 264 160 279c0 17 -17 23 -51 23h-8v34c45 -3 80 -4 102 -4c29 0 63 1 104 4v-33c-5 1 -9 1 -13 1c-53 0 -76 -57 -147 -167l-123 -188l2 -174
c1 -77 6 -102 74 -102h17v-34c-62 3 -110 4 -142 4c-27 0 -74 -1 -140 -4v34c7 0 14 -1 20 -1c61 0 73 25 74 101l2 173l-158 266c-35 58 -50 92 -90 92c-5 0 -11 -1 -17 -2v34zM387 977l73 -47l-163 -163l-37 13z" />
    <glyph glyph-name="Ydieresis" unicode="&#x178;" horiz-adv-x="659" 
d="M9 697c55 -3 97 -4 124 -4c30 0 70 1 120 3v-33h-7c-36 0 -55 -8 -55 -22s14 -35 34 -70l118 -210c106 170 160 264 160 279c0 17 -17 23 -51 23h-8v34c45 -3 80 -4 102 -4c29 0 63 1 104 4v-33c-5 1 -9 1 -13 1c-53 0 -76 -57 -147 -167l-123 -188l2 -174
c1 -77 6 -102 74 -102h17v-34c-62 3 -110 4 -142 4c-27 0 -74 -1 -140 -4v34c7 0 14 -1 20 -1c61 0 73 25 74 101l2 173l-158 266c-35 58 -50 92 -90 92c-5 0 -11 -1 -17 -2v34zM226 909c25 0 61 -33 61 -57s-36 -57 -61 -57c-26 0 -61 33 -61 57c0 23 35 57 61 57zM434 909
c25 0 62 -33 62 -57s-37 -57 -62 -57c-26 0 -61 33 -61 57c0 23 35 57 61 57z" />
    <glyph glyph-name="Zcaron" unicode="&#x17d;" horiz-adv-x="667" 
d="M76 697c68 -8 150 -9 244 -9h116c55 0 117 1 184 9l14 -27c-31 -28 -56 -59 -80 -91l-386 -514c59 -1 112 -1 158 -1c108 0 179 2 215 10c39 8 65 45 88 112l33 -10c-20 -59 -35 -117 -44 -176c-80 8 -182 11 -304 11h-37c-75 0 -155 -1 -242 -11l-16 29
c29 24 51 55 76 88l386 518h-164c-158 0 -218 -8 -235 -102l-32 9c16 51 24 102 26 155zM215 938l119 -99l120 99l29 -15l-134 -156h-30l-134 157z" />
    <glyph glyph-name="aacute" unicode="&#xe1;" horiz-adv-x="481" 
d="M303 236c-127 -35 -187 -46 -187 -110c0 -41 28 -73 75 -73c29 0 65 16 110 45zM469 71l14 -31c-53 -38 -93 -55 -116 -55c-41 0 -62 24 -64 74c-63 -43 -110 -67 -151 -67c-67 0 -116 58 -116 128c0 106 81 108 269 155c1 30 2 52 2 66c0 67 -27 99 -85 99
c-56 0 -90 -22 -90 -57c0 -5 1 -9 1 -13c0 -22 -25 -35 -50 -35c-23 0 -34 7 -34 24c0 43 96 135 202 135c90 0 138 -50 138 -147c0 -79 -9 -160 -9 -243c0 -37 5 -54 32 -54c13 0 31 8 57 21zM298 757l73 -47l-163 -163l-37 13z" />
    <glyph glyph-name="acircumflex" unicode="&#xe2;" horiz-adv-x="481" 
d="M303 236c-127 -35 -187 -46 -187 -110c0 -41 28 -73 75 -73c29 0 65 16 110 45zM469 71l14 -31c-53 -38 -93 -55 -116 -55c-41 0 -62 24 -64 74c-63 -43 -110 -67 -151 -67c-67 0 -116 58 -116 128c0 106 81 108 269 155c1 30 2 52 2 66c0 67 -27 99 -85 99
c-56 0 -90 -22 -90 -57c0 -5 1 -9 1 -13c0 -22 -25 -35 -50 -35c-23 0 -34 7 -34 24c0 43 96 135 202 135c90 0 138 -50 138 -147c0 -79 -9 -160 -9 -243c0 -37 5 -54 32 -54c13 0 31 8 57 21zM227 719h30l133 -157l-30 -15l-119 99l-119 -99l-29 15z" />
    <glyph glyph-name="adieresis" unicode="&#xe4;" horiz-adv-x="481" 
d="M303 236c-127 -35 -187 -46 -187 -110c0 -41 28 -73 75 -73c29 0 65 16 110 45zM469 71l14 -31c-53 -38 -93 -55 -116 -55c-41 0 -62 24 -64 74c-63 -43 -110 -67 -151 -67c-67 0 -116 58 -116 128c0 106 81 108 269 155c1 30 2 52 2 66c0 67 -27 99 -85 99
c-56 0 -90 -22 -90 -57c0 -5 1 -9 1 -13c0 -22 -25 -35 -50 -35c-23 0 -34 7 -34 24c0 43 96 135 202 135c90 0 138 -50 138 -147c0 -79 -9 -160 -9 -243c0 -37 5 -54 32 -54c13 0 31 8 57 21zM137 689c25 0 61 -33 61 -57s-36 -57 -61 -57c-26 0 -61 33 -61 57
c0 23 35 57 61 57zM345 689c25 0 62 -33 62 -57s-37 -57 -62 -57c-26 0 -61 33 -61 57c0 23 35 57 61 57z" />
    <glyph glyph-name="agrave" unicode="&#xe0;" horiz-adv-x="481" 
d="M303 236c-127 -35 -187 -46 -187 -110c0 -41 28 -73 75 -73c29 0 65 16 110 45zM469 71l14 -31c-53 -38 -93 -55 -116 -55c-41 0 -62 24 -64 74c-63 -43 -110 -67 -151 -67c-67 0 -116 58 -116 128c0 106 81 108 269 155c1 30 2 52 2 66c0 67 -27 99 -85 99
c-56 0 -90 -22 -90 -57c0 -5 1 -9 1 -13c0 -22 -25 -35 -50 -35c-23 0 -34 7 -34 24c0 43 96 135 202 135c90 0 138 -50 138 -147c0 -79 -9 -160 -9 -243c0 -37 5 -54 32 -54c13 0 31 8 57 21zM186 757l129 -198l-37 -12l-164 166z" />
    <glyph glyph-name="aring" unicode="&#xe5;" horiz-adv-x="481" 
d="M241 775c66 0 119 -53 119 -119s-52 -118 -119 -118c-66 0 -118 52 -118 118s52 119 118 119zM241 724c-37 0 -68 -30 -68 -68c0 -37 31 -68 68 -68s68 31 68 68c0 38 -30 68 -68 68zM303 236c-127 -35 -187 -46 -187 -110c0 -41 28 -73 75 -73c29 0 65 15 110 44z
M462 70l16 -28c-54 -38 -90 -58 -111 -58c-41 0 -62 25 -64 75c-63 -43 -110 -68 -151 -68c-67 0 -116 58 -116 128c0 105 80 109 269 156c1 30 2 52 2 66c0 67 -27 99 -85 99c-70 0 -85 -27 -89 -70c-2 -26 -12 -36 -45 -36c-26 0 -39 7 -39 25c0 43 96 135 202 135
c90 0 138 -50 138 -147c0 -77 -9 -158 -9 -243c0 -37 6 -54 31 -54c12 0 27 7 51 20z" />
    <glyph glyph-name="atilde" unicode="&#xe3;" horiz-adv-x="481" 
d="M303 236c-127 -35 -187 -46 -187 -110c0 -41 28 -73 75 -73c29 0 65 16 110 45zM469 71l14 -31c-53 -38 -93 -55 -116 -55c-41 0 -62 24 -64 74c-63 -43 -110 -67 -151 -67c-67 0 -116 58 -116 128c0 106 81 108 269 155c1 30 2 52 2 66c0 67 -27 99 -85 99
c-56 0 -90 -22 -90 -57c0 -5 1 -9 1 -13c0 -22 -25 -35 -50 -35c-23 0 -34 7 -34 24c0 43 96 135 202 135c90 0 138 -50 138 -147c0 -79 -9 -160 -9 -243c0 -37 5 -54 32 -54c13 0 31 8 57 21zM402 707l26 -21c-32 -42 -66 -75 -109 -100c-69 5 -118 18 -150 18
c-38 0 -68 -14 -94 -47l-24 23c33 43 70 76 115 100c70 -6 119 -19 151 -19c33 0 61 15 85 46z" />
    <glyph glyph-name="brokenbar" unicode="&#xa6;" 
d="M219 699h62v-370h-62v370zM219 199h62v-370h-62v370z" />
    <glyph glyph-name="ccedilla" unicode="&#xe7;" horiz-adv-x="447" 
d="M405 96l24 -37c-66 -50 -128 -73 -180 -73c-128 0 -217 102 -217 244c0 148 117 264 264 264c77 0 118 -23 118 -61c0 -28 -21 -49 -41 -49c-21 0 -59 49 -121 49c-83 0 -138 -63 -138 -170c0 -133 64 -210 170 -210c41 0 79 14 121 43zM255 0h37l-48 -59
c44 -11 66 -35 66 -64c0 -42 -43 -80 -123 -99l-15 29c44 10 66 31 66 60c0 24 -20 40 -59 47z" />
    <glyph glyph-name="copyright" unicode="&#xa9;" horiz-adv-x="822" 
d="M412 676c76 0 155 -29 217 -79c78 -63 126 -163 126 -266c0 -89 -37 -178 -102 -244c-64 -64 -150 -100 -242 -100s-177 35 -243 100c-65 65 -101 152 -101 244c0 79 27 155 77 217c66 81 164 128 268 128zM411 641c-171 0 -310 -138 -310 -310c0 -171 138 -309 310 -309
c174 0 309 143 309 309c0 172 -140 310 -309 310zM541 144c-45 -19 -88 -30 -131 -30c-117 0 -202 87 -202 214c0 120 90 214 214 214c44 0 87 -10 134 -27v-21c0 -26 1 -55 5 -88l-27 -4c-8 69 -46 102 -117 102c-82 0 -136 -61 -136 -164c0 -114 60 -188 147 -188
c57 0 99 32 118 92l25 -11c-13 -31 -23 -60 -30 -89z" />
    <glyph glyph-name="degree" unicode="&#xb0;" horiz-adv-x="329" 
d="M165 710c76 0 138 -62 138 -138c0 -75 -61 -138 -139 -138c-77 0 -137 61 -137 138c0 78 62 138 138 138zM165 670c-54 0 -99 -43 -99 -98c0 -56 45 -99 99 -99c56 0 98 45 98 99s-43 98 -98 98z" />
    <glyph glyph-name="divide" unicode="&#xf7;" horiz-adv-x="833" 
d="M417 530c31 0 56 -25 56 -56c0 -30 -24 -56 -56 -56s-56 25 -56 56s26 56 56 56zM124 327h585v-57h-585v57zM417 178c30 0 56 -25 56 -56c0 -30 -24 -56 -56 -56c-31 0 -56 25 -56 56c0 32 26 56 56 56z" />
    <glyph glyph-name="eacute" unicode="&#xe9;" horiz-adv-x="488" 
d="M364 324c-20 82 -62 124 -116 124c-60 0 -110 -50 -124 -139c111 0 191 3 240 15zM454 273h-238c-33 0 -65 -1 -95 -4v-18c0 -129 63 -200 169 -200c50 0 95 17 144 49l19 -31c-68 -56 -135 -83 -199 -83c-124 0 -218 97 -218 241c0 155 102 266 222 266
c113 0 186 -78 196 -220zM301 757l73 -47l-163 -163l-37 13z" />
    <glyph glyph-name="ecircumflex" unicode="&#xea;" horiz-adv-x="488" 
d="M364 324c-20 82 -62 124 -116 124c-60 0 -110 -50 -124 -139c111 0 191 3 240 15zM454 273h-238c-33 0 -65 -1 -95 -4v-18c0 -129 63 -200 169 -200c50 0 95 17 144 49l19 -31c-68 -56 -135 -83 -199 -83c-124 0 -218 97 -218 241c0 155 102 266 222 266
c113 0 186 -78 196 -220zM230 719h30l133 -157l-30 -15l-119 99l-119 -99l-29 15z" />
    <glyph glyph-name="edieresis" unicode="&#xeb;" horiz-adv-x="488" 
d="M364 324c-20 82 -62 124 -116 124c-60 0 -110 -50 -124 -139c111 0 191 3 240 15zM454 273h-238c-33 0 -65 -1 -95 -4v-18c0 -129 63 -200 169 -200c50 0 95 17 144 49l19 -31c-68 -56 -135 -83 -199 -83c-124 0 -218 97 -218 241c0 155 102 266 222 266
c113 0 186 -78 196 -220zM140 689c25 0 61 -33 61 -57s-36 -57 -61 -57c-26 0 -61 33 -61 57c0 23 35 57 61 57zM348 689c25 0 62 -33 62 -57s-37 -57 -62 -57c-26 0 -61 33 -61 57c0 23 35 57 61 57z" />
    <glyph glyph-name="egrave" unicode="&#xe8;" horiz-adv-x="488" 
d="M364 324c-20 82 -62 124 -116 124c-60 0 -110 -50 -124 -139c111 0 191 3 240 15zM454 273h-238c-33 0 -65 -1 -95 -4v-18c0 -129 63 -200 169 -200c50 0 95 17 144 49l19 -31c-68 -56 -135 -83 -199 -83c-124 0 -218 97 -218 241c0 155 102 266 222 266
c113 0 186 -78 196 -220zM189 757l129 -198l-37 -12l-164 166z" />
    <glyph glyph-name="eth" unicode="&#xf0;" horiz-adv-x="551" 
d="M203 762c39 -24 75 -50 110 -80c30 20 63 44 100 72l24 -37c-32 -21 -63 -43 -94 -65c118 -118 177 -243 177 -382c0 -168 -108 -283 -245 -283c-143 0 -242 109 -242 248c0 141 111 258 257 258c35 0 66 -6 98 -21c-31 59 -67 104 -105 142c-32 -21 -67 -44 -103 -70
l-23 35c31 19 64 41 98 64c-39 35 -80 67 -125 96zM404 409c-41 24 -79 36 -114 36c-109 0 -170 -65 -170 -189c0 -137 68 -221 162 -221c91 0 150 76 150 206c0 53 -9 110 -28 168z" />
    <glyph glyph-name="iacute" unicode="&#xed;" horiz-adv-x="297" 
d="M193 499c-4 -127 -8 -236 -8 -329v-52c0 -64 4 -86 53 -86c5 0 10 1 15 1v-33c-46 3 -83 5 -110 5c-25 0 -62 -2 -112 -5v34h12c66 0 60 34 61 146l2 121c0 24 1 44 1 60c0 46 -5 65 -35 65c-5 0 -15 -1 -28 -3l-5 31c52 10 103 25 154 45zM206 757l73 -47l-163 -163
l-37 13z" />
    <glyph glyph-name="icircumflex" unicode="&#xee;" horiz-adv-x="297" 
d="M193 499c-4 -127 -8 -236 -8 -329v-52c0 -64 4 -86 53 -86c5 0 10 1 15 1v-33c-46 3 -83 5 -110 5c-25 0 -62 -2 -112 -5v34h12c66 0 60 34 61 146l2 121c0 24 1 44 1 60c0 46 -5 65 -35 65c-5 0 -15 -1 -28 -3l-5 31c52 10 103 25 154 45zM135 719h30l133 -157l-30 -15
l-119 99l-119 -99l-29 15z" />
    <glyph glyph-name="idieresis" unicode="&#xef;" horiz-adv-x="297" 
d="M193 499c-4 -127 -8 -236 -8 -329v-52c0 -64 4 -86 53 -86c5 0 10 1 15 1v-33c-46 3 -83 5 -110 5c-25 0 -62 -2 -112 -5v34h12c66 0 60 34 61 146l2 121c0 24 1 44 1 60c0 46 -5 65 -35 65c-5 0 -15 -1 -28 -3l-5 31c52 10 103 25 154 45zM45 689c25 0 61 -33 61 -57
s-36 -57 -61 -57c-26 0 -61 33 -61 57c0 23 35 57 61 57zM253 689c25 0 62 -33 62 -57s-37 -57 -62 -57c-26 0 -61 33 -61 57c0 23 35 57 61 57z" />
    <glyph glyph-name="igrave" unicode="&#xec;" horiz-adv-x="297" 
d="M193 499c-4 -127 -8 -236 -8 -329v-52c0 -64 4 -86 53 -86c5 0 10 1 15 1v-33c-46 3 -83 5 -110 5c-25 0 -62 -2 -112 -5v34h12c66 0 60 34 61 146l2 121c0 24 1 44 1 60c0 46 -5 65 -35 65c-5 0 -15 -1 -28 -3l-5 31c52 10 103 25 154 45zM94 757l129 -198l-37 -12
l-164 166z" />
    <glyph glyph-name="logicalnot" unicode="&#xac;" horiz-adv-x="833" 
d="M124 419h585v-245h-56v188h-529v57z" />
    <glyph glyph-name="minus" unicode="&#x2212;" horiz-adv-x="833" 
d="M124 327h585v-58h-585v58z" />
    <glyph glyph-name="mu" unicode="&#xb5;" horiz-adv-x="547" 
d="M80 94c-39 -199 -23 -298 -80 -298c-24 0 -39 16 -39 43c0 41 43 152 83 342l53 251h72l-51 -240c-4 -20 -6 -39 -6 -55c0 -54 29 -85 78 -85c63 0 107 44 126 131l54 249h73l-56 -259c-6 -29 -10 -50 -10 -67c0 -32 19 -53 45 -53c22 0 43 12 57 34c23 35 22 75 39 75
c8 0 13 -7 13 -18c0 -12 -5 -40 -20 -73c-24 -53 -61 -80 -112 -80c-43 0 -73 34 -73 93v11c-30 -71 -75 -106 -137 -106c-63 0 -100 36 -109 105z" />
    <glyph glyph-name="multiply" unicode="&#xd7;" horiz-adv-x="833" 
d="M186 571l233 -233l232 233l40 -40l-232 -233l232 -232l-40 -40l-232 232l-233 -232l-39 40l232 232l-232 233z" />
    <glyph glyph-name="ntilde" unicode="&#xf1;" horiz-adv-x="584" 
d="M184 499l-6 -82c68 49 122 76 171 76c96 0 144 -54 144 -162c0 -15 -1 -57 -1 -128c0 -33 -1 -60 -1 -82c0 -64 6 -88 47 -88c3 0 8 1 12 1v-34c-46 3 -80 5 -104 5c-23 0 -60 -1 -107 -5v34h7c65 0 63 27 64 124l1 105v18c0 94 -9 149 -93 149c-37 0 -83 -17 -136 -53
c-3 -77 -4 -136 -4 -178v-67c0 -74 4 -99 47 -99c4 0 8 1 13 1v-34c-46 3 -82 5 -106 5c-23 0 -59 -2 -106 -5v34h9c67 0 61 33 62 146l1 120v48c0 54 -4 78 -34 78c-4 0 -12 -1 -23 -4l-6 30c51 10 100 26 149 47zM453 707l26 -21c-32 -42 -66 -75 -109 -100
c-69 5 -118 18 -150 18c-38 0 -68 -14 -94 -47l-24 23c33 43 70 76 115 100c70 -6 119 -19 151 -19c33 0 61 15 85 46z" />
    <glyph glyph-name="oacute" unicode="&#xf3;" horiz-adv-x="551" 
d="M281 493c142 0 238 -109 238 -240c0 -150 -108 -266 -247 -266c-142 0 -239 107 -239 248c0 146 115 258 248 258zM268 442c-83 0 -145 -63 -145 -176c0 -140 67 -231 159 -231c87 0 150 67 150 189c0 129 -69 218 -164 218zM333 757l73 -47l-163 -163l-37 13z" />
    <glyph glyph-name="ocircumflex" unicode="&#xf4;" horiz-adv-x="551" 
d="M281 493c142 0 238 -109 238 -240c0 -150 -108 -266 -247 -266c-142 0 -239 107 -239 248c0 146 115 258 248 258zM268 442c-83 0 -145 -63 -145 -176c0 -140 67 -231 159 -231c87 0 150 67 150 189c0 129 -69 218 -164 218zM262 719h30l133 -157l-30 -15l-119 99
l-119 -99l-29 15z" />
    <glyph glyph-name="odieresis" unicode="&#xf6;" horiz-adv-x="551" 
d="M281 493c142 0 238 -109 238 -240c0 -150 -108 -266 -247 -266c-142 0 -239 107 -239 248c0 146 115 258 248 258zM268 442c-83 0 -145 -63 -145 -176c0 -140 67 -231 159 -231c87 0 150 67 150 189c0 129 -69 218 -164 218zM172 689c25 0 61 -33 61 -57s-36 -57 -61 -57
c-26 0 -61 33 -61 57c0 23 35 57 61 57zM380 689c25 0 62 -33 62 -57s-37 -57 -62 -57c-26 0 -61 33 -61 57c0 23 35 57 61 57z" />
    <glyph glyph-name="ograve" unicode="&#xf2;" horiz-adv-x="551" 
d="M281 493c142 0 238 -109 238 -240c0 -150 -108 -266 -247 -266c-142 0 -239 107 -239 248c0 146 115 258 248 258zM268 442c-83 0 -145 -63 -145 -176c0 -140 67 -231 159 -231c87 0 150 67 150 189c0 129 -69 218 -164 218zM221 757l129 -198l-37 -12l-164 166z" />
    <glyph glyph-name="onehalf" unicode="&#xbd;" horiz-adv-x="867" 
d="M212 700c-6 -98 -6 -182 -6 -249v-51c0 -56 5 -77 52 -77c4 0 8 1 12 1v-19c-42 2 -74 2 -96 2c-18 0 -48 0 -91 -2v18h9c40 0 54 4 60 29c3 12 6 87 6 225c0 24 -1 52 -2 84c-25 -1 -52 -3 -80 -7l-4 21c45 7 91 15 140 25zM647 711l37 -24
c-150 -219 -304 -456 -464 -708l-38 25c154 223 307 459 465 707zM611 47c41 -1 70 -1 88 -1h38c52 0 70 3 81 41l19 -6c-11 -27 -19 -53 -24 -81c-57 2 -108 3 -151 3c-37 0 -77 -1 -120 -3l-10 18c139 106 207 203 207 261c0 46 -34 80 -80 80c-37 0 -65 -19 -92 -57
l-24 13c34 53 77 80 131 80c70 0 126 -49 126 -109c0 -65 -68 -135 -189 -239z" />
    <glyph glyph-name="onequarter" unicode="&#xbc;" horiz-adv-x="867" 
d="M212 700c-6 -98 -6 -182 -6 -249v-51c0 -56 5 -77 52 -77c4 0 8 1 12 1v-19c-42 2 -74 2 -96 2c-18 0 -48 0 -91 -2v18h9c40 0 54 4 60 29c3 12 6 87 6 225c0 24 -1 52 -2 84c-25 -1 -52 -3 -80 -7l-4 21c45 7 91 15 140 25zM647 711l37 -24
c-150 -219 -304 -456 -464 -708l-38 25c154 223 307 459 465 707zM734 393h41c-3 -77 -5 -156 -5 -236h10c20 0 43 1 68 3c-3 -12 -7 -24 -10 -37c-22 1 -45 1 -68 1v-57c0 -38 3 -48 41 -48h8v-19c-33 2 -59 2 -76 2c-14 0 -38 0 -74 -2v19c4 0 8 -1 12 -1
c37 0 41 14 41 57v49c-36 0 -63 1 -82 1c-15 0 -46 -1 -94 -1l-13 25c44 48 72 78 84 93l30 37c24 30 55 67 87 114zM722 330l-136 -170c41 -2 79 -3 114 -3h22v173z" />
    <glyph glyph-name="onesuperior" unicode="&#xb9;" horiz-adv-x="367" 
d="M222 701c-6 -106 -6 -195 -6 -268v-55c0 -59 5 -81 55 -81h13v-20c-44 2 -78 2 -101 2c-19 0 -50 0 -96 -2v20h10c42 0 56 4 63 30c3 13 6 93 6 241c0 26 -1 56 -2 90c-26 -1 -55 -3 -84 -7l-4 23c47 7 96 16 146 27z" />
    <glyph glyph-name="otilde" unicode="&#xf5;" horiz-adv-x="551" 
d="M281 493c142 0 238 -109 238 -240c0 -150 -108 -266 -247 -266c-142 0 -239 107 -239 248c0 146 115 258 248 258zM268 442c-83 0 -145 -63 -145 -176c0 -140 67 -231 159 -231c87 0 150 67 150 189c0 129 -69 218 -164 218zM437 707l26 -21c-32 -42 -66 -75 -109 -100
c-69 5 -118 18 -150 18c-38 0 -68 -14 -94 -47l-24 23c33 43 70 76 115 100c70 -6 119 -19 151 -19c33 0 61 15 85 46z" />
    <glyph glyph-name="plusminus" unicode="&#xb1;" horiz-adv-x="833" 
d="M388 576h58v-168h263v-57h-263v-168h-58v168h-264v57h264v168zM124 77h585v-57h-585v57z" />
    <glyph glyph-name="registered" unicode="&#xae;" horiz-adv-x="822" 
d="M412 676c76 0 155 -29 217 -79c78 -63 126 -163 126 -266c0 -89 -37 -178 -102 -244c-64 -64 -150 -100 -242 -100s-177 35 -243 100c-65 65 -101 152 -101 244c0 79 27 155 77 217c66 81 164 128 268 128zM411 641c-171 0 -310 -138 -310 -310c0 -171 138 -309 310 -309
c174 0 309 143 309 309c0 172 -140 310 -309 310zM233 159c5 0 9 -1 13 -1c32 0 36 19 36 70v216c0 51 -3 71 -34 71h-9v28c28 -2 51 -4 71 -4c37 0 71 5 99 5c79 0 128 -50 128 -112c0 -45 -22 -77 -69 -106c67 -115 98 -174 139 -174c3 0 5 1 8 1v-25
c-16 -2 -30 -3 -41 -3c-87 0 -101 63 -168 179c-12 -1 -26 -2 -40 -2h-16c0 -56 1 -91 1 -104c0 -32 7 -39 38 -39h8v-27c-38 2 -66 3 -86 3c-14 0 -40 -1 -78 -3v27zM350 337c17 -2 31 -3 41 -3c7 0 19 1 36 2c28 21 40 47 40 83c0 52 -36 91 -76 91c-14 0 -26 -3 -39 -6
c-1 -58 -2 -91 -2 -99v-68z" />
    <glyph glyph-name="scaron" unicode="&#x161;" horiz-adv-x="443" 
d="M361 473c0 -40 4 -80 12 -121l-37 -6c-8 68 -43 101 -106 101c-57 0 -94 -35 -94 -79c0 -61 55 -68 146 -94c75 -21 111 -58 111 -124c0 -93 -80 -164 -199 -164c-43 0 -87 9 -133 27c1 9 1 18 1 27c0 32 -4 67 -11 104l37 9c10 -81 50 -121 122 -121c66 0 111 36 111 85
c0 57 -44 66 -119 89c-88 27 -134 62 -134 142c0 81 70 145 177 145c34 0 71 -7 116 -20zM103 718l119 -99l120 99l29 -15l-134 -156h-30l-134 157z" />
    <glyph glyph-name="thorn" unicode="&#xfe;" horiz-adv-x="560" 
d="M172 755c-3 -112 -5 -215 -5 -312v-18c59 38 108 61 161 61c107 0 190 -96 190 -224c0 -166 -98 -264 -260 -264c-30 0 -61 6 -91 18v-174c0 -58 10 -58 85 -59v-34c-52 3 -92 4 -119 4c-26 0 -66 -2 -120 -5v33c33 1 51 3 60 17c13 21 14 88 14 206v50l2 504v85
c0 27 -12 41 -36 41c-8 0 -17 -2 -28 -4l-7 32c53 9 104 23 154 43zM168 71c40 -20 80 -30 114 -30c94 0 155 64 155 180c0 128 -63 202 -147 202c-36 0 -79 -12 -119 -36c-4 -145 -4 -229 -4 -251c0 -21 1 -42 1 -65z" />
    <glyph glyph-name="threequarters" unicode="&#xbe;" horiz-adv-x="868" 
d="M175 522h15c67 0 108 -36 108 -95c0 -70 -78 -130 -167 -130c-57 0 -103 24 -103 48c0 11 14 24 26 24c13 0 19 -9 30 -19c18 -16 36 -25 62 -25c51 0 93 38 93 90c0 47 -33 80 -82 80c-17 0 -37 -4 -59 -11l-9 19c82 32 123 67 123 105c0 32 -27 59 -67 59
c-30 0 -56 -15 -82 -46l-23 12c29 45 69 67 119 67c63 0 109 -38 109 -85c0 -40 -30 -71 -93 -93zM647 711l37 -24c-150 -219 -304 -456 -464 -708l-38 25c154 223 307 459 465 707zM734 393h41c-3 -77 -5 -156 -5 -236h10c20 0 43 1 68 3c-3 -12 -7 -24 -10 -37
c-22 1 -45 1 -68 1v-57c0 -38 3 -48 41 -48h8v-19c-33 2 -59 2 -76 2c-14 0 -38 0 -74 -2v19c4 0 8 -1 12 -1c37 0 41 14 41 57v49c-36 0 -63 1 -82 1c-15 0 -46 -1 -94 -1l-13 25c44 48 72 78 84 93l30 37c24 30 55 67 87 114zM722 330l-136 -170c41 -2 79 -3 114 -3h22
v173z" />
    <glyph glyph-name="threesuperior" unicode="&#xb3;" horiz-adv-x="367" 
d="M183 509c6 1 11 1 16 1c70 0 113 -39 113 -102c0 -75 -81 -139 -175 -139c-60 0 -108 25 -108 51c0 12 15 25 27 25c15 0 21 -9 32 -19c19 -18 38 -27 65 -27c54 0 97 40 97 96c0 50 -34 86 -86 86c-17 0 -38 -4 -61 -13l-9 21c86 34 128 72 128 113c0 34 -28 63 -70 63
c-31 0 -59 -17 -86 -50l-24 13c30 49 72 73 125 73c66 0 114 -42 114 -92c0 -43 -32 -76 -98 -100z" />
    <glyph glyph-name="trademark" unicode="&#x2122;" horiz-adv-x="822" 
d="M125 702h215l5 -87h-12c-5 51 -25 74 -67 74h-10v-208c0 -16 9 -25 22 -26l15 -1v-13h-121v13l15 1c13 1 22 10 22 26v208h-10c-42 0 -62 -23 -67 -74h-13zM385 702h89l69 -195l72 195h85v-12l-14 -1c-14 -1 -23 -10 -23 -26v-182c0 -16 9 -25 23 -26l14 -1v-13h-115v13
l15 1c13 1 22 10 22 26v193l-87 -234h-7l-85 234v-193c0 -16 10 -25 23 -26l15 -1v-13h-96v13l16 1c13 1 22 10 22 26v181c0 16 -10 25 -23 26l-15 1v13z" />
    <glyph glyph-name="twosuperior" unicode="&#xb2;" horiz-adv-x="367" 
d="M98 327c44 0 74 -1 93 -1h40c53 0 73 4 84 44l20 -6c-12 -29 -20 -57 -25 -87c-60 2 -113 3 -158 3c-39 0 -81 -1 -126 -3l-10 20c146 113 217 216 217 279c0 49 -36 86 -84 86c-39 0 -68 -21 -97 -61l-25 13c36 58 81 87 137 87c74 0 133 -53 133 -117
c0 -70 -72 -146 -199 -257z" />
    <glyph glyph-name="uacute" unicode="&#xfa;" horiz-adv-x="588" 
d="M179 494c-5 -147 -7 -237 -7 -268c0 -110 10 -174 95 -174c35 0 77 17 130 51c2 100 3 165 3 196v33c0 68 -3 93 -50 93c-2 0 -9 0 -22 -1l-3 31c53 4 107 12 161 24c-4 -110 -6 -197 -6 -262c0 -37 -1 -67 -1 -90c0 -54 5 -74 37 -74c7 0 17 2 29 5l4 -30l-149 -38
l-2 73c-66 -50 -119 -77 -165 -77c-90 0 -142 55 -142 146c0 24 1 61 2 110l1 55c0 25 1 46 1 64c0 51 -5 69 -33 69c-8 0 -18 -1 -30 -3l-3 32c49 8 99 20 150 35zM351 757l73 -47l-163 -163l-37 13z" />
    <glyph glyph-name="ucircumflex" unicode="&#xfb;" horiz-adv-x="588" 
d="M179 494c-5 -147 -7 -237 -7 -268c0 -110 10 -174 95 -174c35 0 77 17 130 51c2 100 3 165 3 196v33c0 68 -3 93 -50 93c-2 0 -9 0 -22 -1l-3 31c53 4 107 12 161 24c-4 -110 -6 -197 -6 -262c0 -37 -1 -67 -1 -90c0 -54 5 -74 37 -74c7 0 17 2 29 5l4 -30l-149 -38
l-2 73c-66 -50 -119 -77 -165 -77c-90 0 -142 55 -142 146c0 24 1 61 2 110l1 55c0 25 1 46 1 64c0 51 -5 69 -33 69c-8 0 -18 -1 -30 -3l-3 32c49 8 99 20 150 35zM280 719h30l133 -157l-30 -15l-119 99l-119 -99l-29 15z" />
    <glyph glyph-name="udieresis" unicode="&#xfc;" horiz-adv-x="588" 
d="M179 494c-5 -147 -7 -237 -7 -268c0 -110 10 -174 95 -174c35 0 77 17 130 51c2 100 3 165 3 196v33c0 68 -3 93 -50 93c-2 0 -9 0 -22 -1l-3 31c53 4 107 12 161 24c-4 -110 -6 -197 -6 -262c0 -37 -1 -67 -1 -90c0 -54 5 -74 37 -74c7 0 17 2 29 5l4 -30l-149 -38
l-2 73c-66 -50 -119 -77 -165 -77c-90 0 -142 55 -142 146c0 24 1 61 2 110l1 55c0 25 1 46 1 64c0 51 -5 69 -33 69c-8 0 -18 -1 -30 -3l-3 32c49 8 99 20 150 35zM190 689c25 0 61 -33 61 -57s-36 -57 -61 -57c-26 0 -61 33 -61 57c0 23 35 57 61 57zM398 689
c25 0 62 -33 62 -57s-37 -57 -62 -57c-26 0 -61 33 -61 57c0 23 35 57 61 57z" />
    <glyph glyph-name="ugrave" unicode="&#xf9;" horiz-adv-x="588" 
d="M179 494c-5 -147 -7 -237 -7 -268c0 -110 10 -174 95 -174c35 0 77 17 130 51c2 100 3 165 3 196v33c0 68 -3 93 -50 93c-2 0 -9 0 -22 -1l-3 31c53 4 107 12 161 24c-4 -110 -6 -197 -6 -262c0 -37 -1 -67 -1 -90c0 -54 5 -74 37 -74c7 0 17 2 29 5l4 -30l-149 -38
l-2 73c-66 -50 -119 -77 -165 -77c-90 0 -142 55 -142 146c0 24 1 61 2 110l1 55c0 25 1 46 1 64c0 51 -5 69 -33 69c-8 0 -18 -1 -30 -3l-3 32c49 8 99 20 150 35zM239 757l129 -198l-37 -12l-164 166z" />
    <glyph glyph-name="yacute" unicode="&#xfd;" horiz-adv-x="486" 
d="M0 479c40 -3 72 -5 96 -5c23 0 57 2 101 5v-34h-13c-31 0 -44 -7 -44 -30c0 -21 43 -123 111 -315c81 192 123 297 123 318c0 22 -17 28 -53 28v33c33 -3 61 -4 84 -4c18 0 45 1 82 4v-35h-4c-22 0 -36 -9 -46 -29c-5 -11 -43 -101 -119 -270
c-124 -278 -156 -405 -225 -405c-26 0 -46 19 -46 45c0 38 35 29 59 39c33 13 53 70 101 174c-116 298 -150 448 -199 448c-2 0 -5 0 -8 -1v34zM300 757l73 -47l-163 -163l-37 13z" />
    <glyph glyph-name="ydieresis" unicode="&#xff;" horiz-adv-x="486" 
d="M0 479c40 -3 72 -5 96 -5c23 0 57 2 101 5v-34h-13c-31 0 -44 -7 -44 -30c0 -21 43 -123 111 -315c81 192 123 297 123 318c0 22 -17 28 -53 28v33c33 -3 61 -4 84 -4c18 0 45 1 82 4v-35h-4c-22 0 -36 -9 -46 -29c-5 -11 -43 -101 -119 -270
c-124 -278 -156 -405 -225 -405c-26 0 -46 19 -46 45c0 38 35 29 59 39c33 13 53 70 101 174c-116 298 -150 448 -199 448c-2 0 -5 0 -8 -1v34zM139 689c25 0 61 -33 61 -57s-36 -57 -61 -57c-26 0 -61 33 -61 57c0 23 35 57 61 57zM347 689c25 0 62 -33 62 -57
s-37 -57 -62 -57c-26 0 -61 33 -61 57c0 23 35 57 61 57z" />
    <glyph glyph-name="zcaron" unicode="&#x17e;" horiz-adv-x="472" 
d="M66 479c55 -4 102 -6 138 -6c84 0 154 0 210 6l17 -27c-36 -29 -72 -75 -115 -134l-173 -237c41 -3 76 -4 104 -4h35c77 0 113 4 127 66l31 -9c-12 -44 -20 -89 -25 -134c-76 4 -145 8 -206 8c-57 0 -112 -3 -168 -8l-16 31c43 32 77 79 116 132l177 240
c-53 1 -93 2 -119 2h-20c-65 0 -91 -2 -103 -58l-32 9c11 40 18 81 22 123zM117 718l119 -99l120 99l29 -15l-134 -156h-30l-134 157z" />
    </font>
</defs>
</svg>
